  0
SECTION
  2
HEADER
  9
$ACADVER
  1
AC1009
  9
$DWGCODEPAGE
  3
ansi_1252
  9
$INSBASE
 10
0.0
 20
0.0
 30
0.0
  9
$EXTMIN
 10
0.0
 20
0.0
 30
-32.0
  9
$EXTMAX
 10
12619.12569561671
 20
19893.71472512602
 30
0.0
  9
$LIMMIN
 10
0.0
 20
0.0
  9
$LIMMAX
 10
12.0
 20
9.0
  9
$ORTHOMODE
 70
     1
  9
$REGENMODE
 70
     1
  9
$FILLMODE
 70
     1
  9
$QTEXTMODE
 70
     0
  9
$MIRRTEXT
 70
     0
  9
$DRAGMODE
 70
     2
  9
$LTSCALE
 40
1.0
  9
$OSMODE
 70
 16383
  9
$ATTMODE
 70
     1
  9
$TEXTSIZE
 40
0.2
  9
$TRACEWID
 40
0.05
  9
$TEXTSTYLE
  7
STANDARD
  9
$CLAYER
  8
0
  9
$CELTYPE
  6
BYLAYER
  9
$CECOLOR
 62
   256
  9
$DIMSCALE
 40
1.0
  9
$DIMASZ
 40
0.18
  9
$DIMEXO
 40
0.0625
  9
$DIMDLI
 40
0.38
  9
$DIMRND
 40
0.0
  9
$DIMDLE
 40
0.0
  9
$DIMEXE
 40
0.18
  9
$DIMTP
 40
0.0
  9
$DIMTM
 40
0.0
  9
$DIMTXT
 40
0.18
  9
$DIMCEN
 40
0.09
  9
$DIMTSZ
 40
0.0
  9
$DIMTOL
 70
     0
  9
$DIMLIM
 70
     0
  9
$DIMTIH
 70
     1
  9
$DIMTOH
 70
     1
  9
$DIMSE1
 70
     0
  9
$DIMSE2
 70
     0
  9
$DIMTAD
 70
     0
  9
$DIMZIN
 70
     0
  9
$DIMBLK
  1

  9
$DIMASO
 70
     1
  9
$DIMSHO
 70
     1
  9
$DIMPOST
  1

  9
$DIMAPOST
  1

  9
$DIMALT
 70
     0
  9
$DIMALTD
 70
     2
  9
$DIMALTF
 40
25.4
  9
$DIMLFAC
 40
1.0
  9
$DIMTOFL
 70
     0
  9
$DIMTVP
 40
0.0
  9
$DIMTIX
 70
     0
  9
$DIMSOXD
 70
     0
  9
$DIMSAH
 70
     0
  9
$DIMBLK1
  1

  9
$DIMBLK2
  1

  9
$DIMSTYLE
  2
STANDARD
  9
$DIMCLRD
 70
     0
  9
$DIMCLRE
 70
     0
  9
$DIMCLRT
 70
     0
  9
$DIMTFAC
 40
1.0
  9
$DIMGAP
 40
0.09
  9
$LUNITS
 70
     2
  9
$LUPREC
 70
     4
  9
$SKETCHINC
 40
0.1
  9
$FILLETRAD
 40
0.0
  9
$AUNITS
 70
     0
  9
$AUPREC
 70
     0
  9
$MENU
  1
.
  9
$ELEVATION
 40
0.0
  9
$PELEVATION
 40
0.0
  9
$THICKNESS
 40
0.0
  9
$LIMCHECK
 70
     0
  9
$CHAMFERA
 40
0.0
  9
$CHAMFERB
 40
0.0
  9
$SKPOLY
 70
     0
  9
$TDCREATE
 40
2457352.610530232
  9
$TDUPDATE
 40
2459748.715249398
  9
$TDINDWG
 40
0.145790162
  9
$TDUSRTIMER
 40
0.0101123032
  9
$USRTIMER
 70
     1
  9
$ANGBASE
 50
0.0
  9
$ANGDIR
 70
     0
  9
$PDMODE
 70
     0
  9
$PDSIZE
 40
0.0
  9
$PLINEWID
 40
0.0
  9
$COORDS
 70
     1
  9
$SPLFRAME
 70
     0
  9
$SPLINETYPE
 70
     6
  9
$SPLINESEGS
 70
     8
  9
$ATTDIA
 70
     0
  9
$ATTREQ
 70
     1
  9
$HANDLING
 70
     1
  9
$HANDSEED
  5
8490
  9
$SURFTAB1
 70
     6
  9
$SURFTAB2
 70
     6
  9
$SURFTYPE
 70
     6
  9
$SURFU
 70
     6
  9
$SURFV
 70
     6
  9
$UCSNAME
  2

  9
$UCSORG
 10
0.0
 20
0.0
 30
0.0
  9
$UCSXDIR
 10
1.0
 20
0.0
 30
0.0
  9
$UCSYDIR
 10
0.0
 20
1.0
 30
0.0
  9
$PUCSNAME
  2

  9
$PUCSORG
 10
0.0
 20
0.0
 30
0.0
  9
$PUCSXDIR
 10
1.0
 20
0.0
 30
0.0
  9
$PUCSYDIR
 10
0.0
 20
1.0
 30
0.0
  9
$USERI1
 70
     0
  9
$USERI2
 70
     0
  9
$USERI3
 70
     0
  9
$USERI4
 70
     0
  9
$USERI5
 70
     0
  9
$USERR1
 40
0.0
  9
$USERR2
 40
0.0
  9
$USERR3
 40
0.0
  9
$USERR4
 40
0.0
  9
$USERR5
 40
0.0
  9
$WORLDVIEW
 70
     1
  9
$SHADEDGE
 70
     3
  9
$SHADEDIF
 70
    70
  9
$TILEMODE
 70
     1
  9
$MAXACTVP
 70
    64
  9
$PLIMCHECK
 70
     0
  9
$PEXTMIN
 10
0.0
 20
0.0
 30
0.0
  9
$PEXTMAX
 10
0.0
 20
0.0
 30
0.0
  9
$PLIMMIN
 10
0.0
 20
0.0
  9
$PLIMMAX
 10
0.0
 20
0.0
  9
$UNITMODE
 70
     0
  9
$VISRETAIN
 70
     1
  9
$PLINEGEN
 70
     0
  9
$PSLTSCALE
 70
     1
  0
ENDSEC
  0
SECTION
  2
TABLES
  0
TABLE
  2
VPORT
 70
     1
  0
VPORT
  2
*ACTIVE
 70
     0
 10
0.0
 20
0.0
 11
1.0
 21
1.0
 12
6309.562847808355
 22
9946.85736256301
 13
0.0
 23
0.0
 14
0.5
 24
0.5
 15
0.5
 25
0.5
 16
0.0
 26
0.0
 36
1.0
 17
0.0
 27
0.0
 37
0.0
 40
20291.58901962854
 41
2.040114613180516
 42
50.0
 43
0.0
 44
0.0
 50
0.0
 51
0.0
 71
    16
 72
  1000
 73
     1
 74
     3
 75
     0
 76
     0
 77
     0
 78
     0
  0
ENDTAB
  0
TABLE
  2
LTYPE
 70
     1
  0
LTYPE
  2
CONTINUOUS
 70
     0
  3
Solid line
 72
    65
 73
     0
 40
0.0
  0
ENDTAB
  0
TABLE
  2
LAYER
 70
     2
  0
LAYER
  2
0
 70
     0
 62
     7
  6
CONTINUOUS
  0
LAYER
  2
DEFPOINTS
 70
     0
 62
     7
  6
CONTINUOUS
  0
ENDTAB
  0
TABLE
  2
STYLE
 70
     2
  0
STYLE
  2
STANDARD
 70
     0
 40
0.0
 41
1.0
 50
0.0
 71
     0
 42
0.2
  3
txt
  4

  0
STYLE
  2
STILE1
 70
     0
 40
0.0
 41
1.0
 50
0.0
 71
     0
 42
19.0
  3
ROMANS.SHX
  4

  0
ENDTAB
  0
TABLE
  2
VIEW
 70
     0
  0
ENDTAB
  0
TABLE
  2
UCS
 70
     0
  0
ENDTAB
  0
TABLE
  2
APPID
 70
     3
  0
APPID
  2
ACAD
 70
     0
  0
APPID
  2
DCO15
 70
     0
  0
APPID
  2
PE_URL
 70
     0
  0
ENDTAB
  0
TABLE
  2
DIMSTYLE
 70
     1
  0
DIMSTYLE
  2
STANDARD
 70
     0
  3

  4

  5

  6

  7

 40
1.0
 41
0.18
 42
0.0625
 43
0.38
 44
0.18
 45
0.0
 46
0.0
 47
0.0
 48
0.0
140
0.18
141
0.09
142
0.0
143
25.4
144
1.0
145
0.0
146
1.0
147
0.09
 71
     0
 72
     0
 73
     1
 74
     1
 75
     0
 76
     0
 77
     0
 78
     0
170
     0
171
     2
172
     0
173
     0
174
     0
175
     0
176
     0
177
     0
178
     0
  0
ENDTAB
  0
ENDSEC
  0
SECTION
  2
BLOCKS
  0
BLOCK
  8
0
  2
$MODEL_SPACE
 70
     0
 10
0.0
 20
0.0
 30
0.0
  3
$MODEL_SPACE
  1

  0
ENDBLK
  5
7669
  8
0
  0
BLOCK
 67
     1
  8
0
  2
$PAPER_SPACE
 70
     0
 10
0.0
 20
0.0
 30
0.0
  3
$PAPER_SPACE
  1

  0
ENDBLK
  5
7665
 67
     1
  8
0
  0
BLOCK
  8
0
  2
*D4
 70
     1
 10
0.0
 20
0.0
 30
0.0
  3
*D4
  1

  0
LINE
  5
7DCC
  8
0
 62
     0
 10
10317.44957477224
 20
19048.02992222863
 30
0.0
 11
10317.44957477224
 21
19095.31837937048
 31
0.0
  0
LINE
  5
7DCD
  8
0
 62
     0
 10
9747.449574772243
 20
19048.02992222863
 30
0.0
 11
9747.449574772243
 21
19095.31837937048
 31
0.0
  0
LINE
  5
7DCE
  8
0
 62
     0
 10
10317.26957477224
 20
19095.13837937048
 30
0.0
 11
10033.09457477224
 21
19095.13837937048
 31
0.0
  0
LINE
  5
7DCF
  8
0
 62
     0
 10
9747.629574772243
 20
19095.13837937048
 30
0.0
 11
10031.80457477224
 21
19095.13837937048
 31
0.0
  0
SOLID
  5
7DD0
  8
0
 62
     0
 10
10317.26957477224
 20
19095.10837937048
 30
0.0
 11
10317.26957477224
 21
19095.16837937048
 31
0.0
 12
10317.44957477224
 22
19095.13837937048
 32
0.0
 13
10317.44957477224
 23
19095.13837937048
 33
0.0
  0
SOLID
  5
7DD1
  8
0
 62
     0
 10
9747.629574772243
 20
19095.16837937048
 30
0.0
 11
9747.629574772243
 21
19095.10837937048
 31
0.0
 12
9747.449574772243
 22
19095.13837937048
 32
0.0
 13
9747.449574772243
 23
19095.13837937048
 33
0.0
  0
TEXT
  5
7DD2
  8
0
  6
CONTINUOUS
 62
     0
 10
10031.89457477224
 20
19095.04837937048
 30
0.0
 40
0.18
  1
570.0000
  0
POINT
  5
7DD3
  8
DEFPOINTS
 62
     0
 10
10317.44957477224
 20
19047.96742222863
 30
0.0
  0
POINT
  5
7DD4
  8
DEFPOINTS
 62
     0
 10
9747.449574772243
 20
19047.96742222863
 30
0.0
  0
POINT
  5
7DD5
  8
DEFPOINTS
 62
     0
 10
9747.449574772243
 20
19095.13837937048
 30
0.0
  0
ENDBLK
  5
7DCB
  8
0
  0
ENDSEC
  0
SECTION
  2
ENTITIES
  0
TEXT
  5
13CA
  8
0
 10
3173.906836621409
 20
432.2479967307316
 30
0.0
 40
125.0
  1
Questo disegno è di proprietà di Fantin S.r.l.   
  7
STILE1
 72
     1
 11
5596.525884240456
 21
432.2479967307316
 31
0.0
  0
TEXT
  5
13CB
  8
0
 10
3936.452026148206
 20
778.7322304035333
 30
0.0
 40
125.0
  1
Ali
  7
STILE1
 72
     1
 11
4032.062145195825
 21
778.7322304035333
 31
0.0
  0
POLYLINE
  5
13CC
  8
0
  6
CONTINUOUS
 66
     1
 10
0.0
 20
0.0
 30
0.0
  0
VERTEX
  5
7EB9
  8
0
  6
CONTINUOUS
 10
2006.841552732512
 20
299.9999999999997
 30
0.0
  0
VERTEX
  5
7EBA
  8
0
  6
CONTINUOUS
 10
2006.841552732512
 20
687.661092123016
 30
0.0
  0
VERTEX
  5
7EBB
  8
0
  6
CONTINUOUS
 10
2108.191094296053
 20
687.661092123016
 30
0.0
 42
-0.316444976687396
  0
VERTEX
  5
7EBC
  8
0
  6
CONTINUOUS
 10
2159.138888884337
 20
659.4164767791514
 30
0.0
  0
VERTEX
  5
7EBD
  8
0
  6
CONTINUOUS
 10
2259.932047529146
 20
489.3975694442633
 30
0.0
  0
VERTEX
  5
7EBE
  8
0
  6
CONTINUOUS
 10
2262.700181747787
 20
489.3975694442633
 30
0.0
  0
VERTEX
  5
7EBF
  8
0
  6
CONTINUOUS
 10
2262.700181747787
 20
687.661092123016
 30
0.0
  0
VERTEX
  5
7EC0
  8
0
  6
CONTINUOUS
 10
2375.123982746154
 20
687.661092123016
 30
0.0
  0
VERTEX
  5
7EC1
  8
0
  6
CONTINUOUS
 10
2375.123982746154
 20
299.9999999999997
 30
0.0
  0
VERTEX
  5
7EC2
  8
0
  6
CONTINUOUS
 10
2292.601888021454
 20
299.9999999999997
 30
0.0
 42
-0.312959769389874
  0
VERTEX
  5
7EC3
  8
0
  6
CONTINUOUS
 10
2241.654093428515
 20
328.2428927952421
 30
0.0
  0
VERTEX
  5
7EC4
  8
0
  6
CONTINUOUS
 10
2122.033487958833
 20
521.5196397574612
 30
0.0
  0
VERTEX
  5
7EC5
  8
0
  6
CONTINUOUS
 10
2119.268798828125
 20
521.5196397574612
 30
0.0
  0
VERTEX
  5
7EC6
  8
0
  6
CONTINUOUS
 10
2119.268798828125
 20
299.9999999999997
 30
0.0
  0
VERTEX
  5
7EC7
  8
0
  6
CONTINUOUS
 10
2006.841552732512
 20
299.9999999999997
 30
0.0
  0
SEQEND
  5
8374
  8
0
  6
CONTINUOUS
  0
POLYLINE
  5
13CD
  8
0
  6
CONTINUOUS
 66
     1
 10
0.0
 20
0.0
 30
0.0
  0
VERTEX
  5
7EC8
  8
0
  6
CONTINUOUS
 10
1030.479098847136
 20
299.9999999999997
 30
0.0
  0
VERTEX
  5
7EC9
  8
0
  6
CONTINUOUS
 10
1030.479098847136
 20
687.661092123016
 30
0.0
  0
VERTEX
  5
7ECA
  8
0
  6
CONTINUOUS
 10
1131.828640410675
 20
687.661092123016
 30
0.0
 42
-0.316444976687396
  0
VERTEX
  5
7ECB
  8
0
  6
CONTINUOUS
 10
1182.776435003616
 20
659.4164767791514
 30
0.0
  0
VERTEX
  5
7ECC
  8
0
  6
CONTINUOUS
 10
1283.569593643768
 20
489.3975694442633
 30
0.0
  0
VERTEX
  5
7ECD
  8
0
  6
CONTINUOUS
 10
1286.337727867066
 20
489.3975694442633
 30
0.0
  0
VERTEX
  5
7ECE
  8
0
  6
CONTINUOUS
 10
1286.337727867066
 20
687.661092123016
 30
0.0
  0
VERTEX
  5
7ECF
  8
0
  6
CONTINUOUS
 10
1398.761528860777
 20
687.661092123016
 30
0.0
  0
VERTEX
  5
7ED0
  8
0
  6
CONTINUOUS
 10
1398.761528860777
 20
299.9999999999997
 30
0.0
  0
VERTEX
  5
7ED1
  8
0
  6
CONTINUOUS
 10
1316.239434136078
 20
299.9999999999997
 30
0.0
 42
-0.312959769389874
  0
VERTEX
  5
7ED2
  8
0
  6
CONTINUOUS
 10
1265.29163953848
 20
328.2428927952421
 30
0.0
  0
VERTEX
  5
7ED3
  8
0
  6
CONTINUOUS
 10
1145.671034073457
 20
521.5196397574612
 30
0.0
  0
VERTEX
  5
7ED4
  8
0
  6
CONTINUOUS
 10
1142.906344942748
 20
521.5196397574612
 30
0.0
  0
VERTEX
  5
7ED5
  8
0
  6
CONTINUOUS
 10
1142.906344942748
 20
299.9999999999997
 30
0.0
  0
VERTEX
  5
7ED6
  8
0
  6
CONTINUOUS
 10
1030.479098847136
 20
299.9999999999997
 30
0.0
  0
SEQEND
  5
8375
  8
0
  6
CONTINUOUS
  0
POLYLINE
  5
13CE
  8
0
  6
CONTINUOUS
 66
     1
 10
0.0
 20
0.0
 30
0.0
  0
VERTEX
  5
7ED7
  8
0
  6
CONTINUOUS
 10
1783.103271485306
 20
687.6593695743937
 30
0.0
  0
VERTEX
  5
7ED8
  8
0
  6
CONTINUOUS
 10
1783.103271485306
 20
596.8363172747192
 30
0.0
  0
VERTEX
  5
7ED9
  8
0
  6
CONTINUOUS
 10
1666.80718316231
 20
596.8363172747192
 30
0.0
  0
VERTEX
  5
7EDA
  8
0
  6
CONTINUOUS
 10
1666.80718316231
 20
299.9999999999997
 30
0.0
  0
VERTEX
  5
7EDB
  8
0
  6
CONTINUOUS
 10
1547.737792972475
 20
299.9999999999997
 30
0.0
  0
VERTEX
  5
7EDC
  8
0
  6
CONTINUOUS
 10
1547.737792972475
 20
596.8363172747192
 30
0.0
  0
VERTEX
  5
7EDD
  8
0
  6
CONTINUOUS
 10
1434.204671224579
 20
596.8363172747192
 30
0.0
  0
VERTEX
  5
7EDE
  8
0
  6
CONTINUOUS
 10
1434.204671224579
 20
687.6593695743937
 30
0.0
  0
VERTEX
  5
7EDF
  8
0
  6
CONTINUOUS
 10
1783.103271485306
 20
687.6593695743937
 30
0.0
  0
SEQEND
  5
8376
  8
0
  6
CONTINUOUS
  0
POLYLINE
  5
13CF
  8
0
  6
CONTINUOUS
 66
     1
 10
0.0
 20
0.0
 30
0.0
 70
     1
  0
VERTEX
  5
7EE0
  8
0
  6
CONTINUOUS
 10
1820.206949869171
 20
687.6593695743937
 30
0.0
  0
VERTEX
  5
7EE1
  8
0
  6
CONTINUOUS
 10
1939.276340059005
 20
687.6593695743937
 30
0.0
  0
VERTEX
  5
7EE2
  8
0
  6
CONTINUOUS
 10
1939.276340059005
 20
299.9999999999997
 30
0.0
  0
VERTEX
  5
7EE3
  8
0
  6
CONTINUOUS
 10
1820.206949869171
 20
299.9999999999997
 30
0.0
  0
SEQEND
  5
8377
  8
0
  6
CONTINUOUS
  0
POLYLINE
  5
13D0
  8
0
  6
CONTINUOUS
 66
     1
 10
0.0
 20
0.0
 30
0.0
  0
VERTEX
  5
7EE4
  8
0
  6
CONTINUOUS
 10
605.1458875834936
 20
687.6576470269353
 30
0.0
  0
VERTEX
  5
7EE5
  8
0
  6
CONTINUOUS
 10
605.1458875834936
 20
598.4968532994384
 30
0.0
  0
VERTEX
  5
7EE6
  8
0
  6
CONTINUOUS
 10
419.0693901898336
 20
598.4968532994384
 30
0.0
  0
VERTEX
  5
7EE7
  8
0
  6
CONTINUOUS
 10
419.0693901898336
 20
521.52136230492
 30
0.0
  0
VERTEX
  5
7EE8
  8
0
  6
CONTINUOUS
 10
549.2130398191512
 20
521.52136230492
 30
0.0
  0
VERTEX
  5
7EE9
  8
0
  6
CONTINUOUS
 10
549.2130398191512
 20
438.4480523003727
 30
0.0
  0
VERTEX
  5
7EEA
  8
0
  6
CONTINUOUS
 10
419.0693901898336
 20
438.4480523003727
 30
0.0
  0
VERTEX
  5
7EEB
  8
0
  6
CONTINUOUS
 10
419.0693901898336
 20
299.9999999999997
 30
0.0
  0
VERTEX
  5
7EEC
  8
0
  6
CONTINUOUS
 10
300.0
 20
299.9999999999997
 30
0.0
  0
VERTEX
  5
7EED
  8
0
  6
CONTINUOUS
 10
300.0
 20
687.6576470269353
 30
0.0
  0
VERTEX
  5
7EEE
  8
0
  6
CONTINUOUS
 10
605.1458875834936
 20
687.6576470269353
 30
0.0
  0
SEQEND
  5
8378
  8
0
  6
CONTINUOUS
  0
POLYLINE
  5
13D1
  8
0
  6
CONTINUOUS
 66
     1
 10
0.0
 20
0.0
 30
0.0
  0
VERTEX
  5
7EEF
  8
0
  6
CONTINUOUS
 10
791.2309977225952
 20
580.7787272136192
 30
0.0
  0
VERTEX
  5
7EF0
  8
0
  6
CONTINUOUS
 10
824.458943684584
 20
466.6909450956151
 30
0.0
  0
VERTEX
  5
7EF1
  8
0
  6
CONTINUOUS
 10
751.9104003906241
 20
466.6909450956151
 30
0.0
  0
VERTEX
  5
7EF2
  8
0
  6
CONTINUOUS
 10
785.13834635727
 20
580.7787272136192
 30
0.0
  0
VERTEX
  5
7EF3
  8
0
  6
CONTINUOUS
 10
791.2309977225952
 20
580.7787272136192
 30
0.0
  0
SEQEND
  5
8379
  8
0
  6
CONTINUOUS
  0
POLYLINE
  5
13D2
  8
0
  6
CONTINUOUS
 66
     1
 10
0.0
 20
0.0
 30
0.0
 70
     1
  0
VERTEX
  5
7EF4
  8
0
  6
CONTINUOUS
 10
847.7226611692438
 20
383.6228027346076
 30
0.0
  0
VERTEX
  5
7EF5
  8
0
  6
CONTINUOUS
 10
847.7226611692438
 20
383.6228027346076
 30
0.0
  0
VERTEX
  5
7EF6
  8
0
  6
CONTINUOUS
 10
872.0839436817907
 20
299.9999999999997
 30
0.0
  0
VERTEX
  5
7EF7
  8
0
  6
CONTINUOUS
 10
997.8006456140432
 20
299.9999999999997
 30
0.0
  0
VERTEX
  5
7EF8
  8
0
  6
CONTINUOUS
 10
880.3917914489284
 20
652.7743326826017
 30
0.0
 42
0.1089385125692126
  0
VERTEX
  5
7EF9
  8
0
  6
CONTINUOUS
 10
867.6499316329131
 20
680.4454704024826
 30
0.0
 42
0.1589313772246072
  0
VERTEX
  5
7EFA
  8
0
  6
CONTINUOUS
 10
855.6541064428161
 20
687.7303423592817
 30
0.0
 42
0.058673645385263
  0
VERTEX
  5
7EFB
  8
0
  6
CONTINUOUS
 10
839.4089355459447
 20
689.3216281465718
 30
0.0
  0
VERTEX
  5
7EFC
  8
0
  6
CONTINUOUS
 10
839.4089355459447
 20
689.3216281465718
 30
0.0
  0
VERTEX
  5
7EFD
  8
0
  6
CONTINUOUS
 10
744.1606580931694
 20
689.3216281465718
 30
0.0
 42
0.058673645385263
  0
VERTEX
  5
7EFE
  8
0
  6
CONTINUOUS
 10
727.9154871962947
 20
687.7303423592817
 30
0.0
 42
0.1589313772246072
  0
VERTEX
  5
7EFF
  8
0
  6
CONTINUOUS
 10
715.9196620061985
 20
680.4454704024826
 30
0.0
 42
0.1089385125692126
  0
VERTEX
  5
7F00
  8
0
  6
CONTINUOUS
 10
703.1778021901849
 20
652.7743326826017
 30
0.0
  0
VERTEX
  5
7F01
  8
0
  6
CONTINUOUS
 10
585.768948029726
 20
299.9999999999997
 30
0.0
  0
VERTEX
  5
7F02
  8
0
  6
CONTINUOUS
 10
704.8348931223154
 20
299.9999999999997
 30
0.0
  0
VERTEX
  5
7F03
  8
0
  6
CONTINUOUS
 10
728.6473931185901
 20
383.6228027346076
 30
0.0
  0
SEQEND
  5
837A
  8
0
  6
CONTINUOUS
  0
TEXT
  5
13D3
  8
0
 10
3484.840736835664
 20
170.1637904425171
 30
0.0
 40
125.0
  1
This drawing is property of Fantin S.r.l. 
  7
STILE1
 72
     1
 11
5499.721689216617
 21
170.1637904425171
 31
0.0
  0
POLYLINE
  5
13D4
  8
0
 66
     1
 10
0.0
 20
0.0
 30
0.0
  0
VERTEX
  5
7F04
  8
0
 10
2675.123982746154
 20
687.661092123016
 30
0.0
  0
VERTEX
  5
7F05
  8
0
 10
8025.371948238463
 20
687.6610921230168
 30
0.0
  0
SEQEND
  5
837B
  8
0
  0
POLYLINE
  5
13D5
  8
0
 66
     1
 10
0.0
 20
0.0
 30
0.0
 70
     1
  0
VERTEX
  5
7F06
  8
0
 10
0.0
 20
987.6576470269353
 30
0.0
  0
VERTEX
  5
7F07
  8
0
 10
8025.371948238463
 20
987.6576470269353
 30
0.0
  0
VERTEX
  5
7F08
  8
0
 10
8025.371948238463
 20
0.0
 30
0.0
  0
VERTEX
  5
7F09
  8
0
 10
0.0
 20
0.0
 30
0.0
  0
SEQEND
  5
837C
  8
0
  0
LINE
  5
13D6
  8
0
 10
2675.123982746154
 20
987.6576470269353
 30
0.0
 11
2675.123982746154
 21
0.0
 31
0.0
  0
LINE
  5
13D7
  8
0
 10
5350.247965492308
 20
687.661092123016
 30
0.0
 11
5350.247965492308
 21
987.6576470269353
 31
0.0
  0
TEXT
  5
13D8
  8
0
 10
6252.7084966879
 20
778.7322304035333
 30
0.0
 40
125.0
  1
2022-06
  7
STILE1
 72
     1
 11
6687.604330021233
 21
778.7322304035333
 31
0.0
  0
LINE
  5
13D9
  8
0
 10
8025.371948238463
 20
987.6576470269353
 30
0.0
 11
8025.371948238463
 21
0.0
 31
0.0
  0
POLYLINE
  5
30C5
  8
0
 66
     1
 10
0.0
 20
0.0
 30
0.0
 70
     1
  0
VERTEX
  5
7F0A
  8
0
 10
4591.676113691904
 20
2386.441590887562
 30
0.0
  0
VERTEX
  5
7F0B
  8
0
 10
5383.676109400384
 20
2386.441590887562
 30
0.0
  0
VERTEX
  5
7F0C
  8
0
 10
5383.676109400384
 20
2687.441581041609
 30
0.0
  0
VERTEX
  5
7F0D
  8
0
 10
4591.676113691904
 20
2687.441581041609
 30
0.0
  0
SEQEND
  5
837D
  8
0
  0
POLYLINE
  5
30C6
  8
0
 66
     1
 10
0.0
 20
0.0
 30
0.0
 70
     1
  0
VERTEX
  5
7F0E
  8
0
 10
3007.676122274977
 20
2386.441590887562
 30
0.0
  0
VERTEX
  5
7F0F
  8
0
 10
3799.676117983443
 20
2386.441590887562
 30
0.0
  0
VERTEX
  5
7F10
  8
0
 10
3799.676117983443
 20
2687.441581041609
 30
0.0
  0
VERTEX
  5
7F11
  8
0
 10
3007.676122274977
 20
2687.441581041609
 30
0.0
  0
SEQEND
  5
837E
  8
0
  0
POLYLINE
  5
30C7
  8
0
 66
     1
 10
0.0
 20
0.0
 30
0.0
 70
     1
  0
VERTEX
  5
7F12
  8
0
 10
4591.676113691904
 20
2386.441590887562
 30
0.0
  0
VERTEX
  5
7F13
  8
0
 10
3799.676117983459
 20
2386.441590887562
 30
0.0
  0
VERTEX
  5
7F14
  8
0
 10
3799.676117983459
 20
2687.441581041609
 30
0.0
  0
VERTEX
  5
7F15
  8
0
 10
4591.676113691904
 20
2687.441581041609
 30
0.0
  0
SEQEND
  5
837F
  8
0
  0
POLYLINE
  5
30C8
  8
0
 66
     1
 10
0.0
 20
0.0
 30
0.0
 70
     1
  0
VERTEX
  5
7F16
  8
0
 10
2409.999992381541
 20
2386.441590887562
 30
0.0
  0
VERTEX
  5
7F17
  8
0
 10
1617.999996673074
 20
2386.441590887562
 30
0.0
  0
VERTEX
  5
7F18
  8
0
 10
1617.999996673074
 20
2687.441581041609
 30
0.0
  0
VERTEX
  5
7F19
  8
0
 10
2409.999992381541
 20
2687.441581041609
 30
0.0
  0
SEQEND
  5
8380
  8
0
  0
POLYLINE
  5
30C9
  8
0
 66
     1
 10
0.0
 20
0.0
 30
0.0
 70
     1
  0
VERTEX
  5
7F1A
  8
0
 10
826.0000009646166
 20
2386.441590887562
 30
0.0
  0
VERTEX
  5
7F1B
  8
0
 10
1617.99999667306
 20
2386.441590887562
 30
0.0
  0
VERTEX
  5
7F1C
  8
0
 10
1617.99999667306
 20
2687.441581041609
 30
0.0
  0
VERTEX
  5
7F1D
  8
0
 10
826.0000009646166
 20
2687.441581041609
 30
0.0
  0
SEQEND
  5
8381
  8
0
  0
POLYLINE
  5
30CA
  8
0
 66
     1
 10
0.0
 20
0.0
 30
0.0
 70
     1
  0
VERTEX
  5
7F1E
  8
0
 10
826.0000009646166
 20
2687.441581041609
 30
0.0
  0
VERTEX
  5
7F1F
  8
0
 10
1617.99999667306
 20
2687.441581041609
 30
0.0
  0
VERTEX
  5
7F20
  8
0
 10
1617.99999667306
 20
2837.941581041608
 30
0.0
  0
VERTEX
  5
7F21
  8
0
 10
826.0000009646166
 20
2837.941581041608
 30
0.0
  0
SEQEND
  5
8382
  8
0
  0
POLYLINE
  5
30CB
  8
0
 66
     1
 10
0.0
 20
0.0
 30
0.0
 70
     1
  0
VERTEX
  5
7F22
  8
0
 10
826.0000009646166
 20
2883.941584856311
 30
0.0
  0
VERTEX
  5
7F23
  8
0
 10
2409.999992381541
 20
2883.941584856311
 30
0.0
  0
VERTEX
  5
7F24
  8
0
 10
2409.999992381534
 20
2837.941581041608
 30
0.0
  0
VERTEX
  5
7F25
  8
0
 10
826.0000009646022
 20
2837.941581041608
 30
0.0
  0
SEQEND
  5
8383
  8
0
  0
POLYLINE
  5
30CC
  8
0
 66
     1
 10
0.0
 20
0.0
 30
0.0
 70
     1
  0
VERTEX
  5
7F26
  8
0
 10
812.0000023951206
 20
2386.441590887558
 30
0.0
  0
VERTEX
  5
7F27
  8
0
 10
826.0000009646166
 20
2386.441590887558
 30
0.0
  0
VERTEX
  5
7F28
  8
0
 10
826.0000009646166
 20
2883.941584856311
 30
0.0
  0
VERTEX
  5
7F29
  8
0
 10
812.0000023951206
 20
2883.941584856311
 30
0.0
  0
SEQEND
  5
8384
  8
0
  0
POLYLINE
  5
30CD
  8
0
 66
     1
 10
0.0
 20
0.0
 30
0.0
 70
     1
  0
VERTEX
  5
7F2A
  8
0
 10
812.0000023951206
 20
2897.9415834258
 30
0.0
  0
VERTEX
  5
7F2B
  8
0
 10
2423.999990951019
 20
2897.9415834258
 30
0.0
  0
VERTEX
  5
7F2C
  8
0
 10
2423.999990951019
 20
2883.941584856311
 30
0.0
  0
VERTEX
  5
7F2D
  8
0
 10
812.0000023951206
 20
2883.941584856311
 30
0.0
  0
SEQEND
  5
8385
  8
0
  0
POLYLINE
  5
30CE
  8
0
 66
     1
 10
0.0
 20
0.0
 30
0.0
 70
     1
  0
VERTEX
  5
7F2E
  8
0
 10
2409.999992381534
 20
2687.441581041609
 30
0.0
  0
VERTEX
  5
7F2F
  8
0
 10
1617.999996673074
 20
2687.441581041609
 30
0.0
  0
VERTEX
  5
7F30
  8
0
 10
1617.999996673074
 20
2837.941581041608
 30
0.0
  0
VERTEX
  5
7F31
  8
0
 10
2409.999992381534
 20
2837.941581041608
 30
0.0
  0
SEQEND
  5
8386
  8
0
  0
POLYLINE
  5
30CF
  8
0
 66
     1
 10
0.0
 20
0.0
 30
0.0
 70
     1
  0
VERTEX
  5
7F32
  8
0
 10
2423.999990951019
 20
2386.441590887558
 30
0.0
  0
VERTEX
  5
7F33
  8
0
 10
2409.999992381541
 20
2386.441590887558
 30
0.0
  0
VERTEX
  5
7F34
  8
0
 10
2409.999992381541
 20
2883.941584856311
 30
0.0
  0
VERTEX
  5
7F35
  8
0
 10
2423.999990951019
 20
2883.941584856311
 30
0.0
  0
SEQEND
  5
8387
  8
0
  0
POLYLINE
  5
30D0
  8
0
 66
     1
 10
0.0
 20
0.0
 30
0.0
 70
     1
  0
VERTEX
  5
7F36
  8
0
 10
812.0000023951206
 20
2372.441592318065
 30
0.0
  0
VERTEX
  5
7F37
  8
0
 10
2423.999990951019
 20
2372.441592318065
 30
0.0
  0
VERTEX
  5
7F38
  8
0
 10
2423.999990951019
 20
2386.441590887562
 30
0.0
  0
VERTEX
  5
7F39
  8
0
 10
812.0000023951206
 20
2386.441590887562
 30
0.0
  0
SEQEND
  5
8388
  8
0
  0
POLYLINE
  5
30D1
  8
0
 66
     1
 10
0.0
 20
0.0
 30
0.0
 70
     1
  0
VERTEX
  5
7F3A
  8
0
 10
5397.676107969863
 20
2386.441590887558
 30
0.0
  0
VERTEX
  5
7F3B
  8
0
 10
5383.676109400384
 20
2386.441590887558
 30
0.0
  0
VERTEX
  5
7F3C
  8
0
 10
5383.676109400384
 20
2883.941584856311
 30
0.0
  0
VERTEX
  5
7F3D
  8
0
 10
5397.676107969863
 20
2883.941584856311
 30
0.0
  0
SEQEND
  5
8389
  8
0
  0
POLYLINE
  5
30D2
  8
0
 66
     1
 10
0.0
 20
0.0
 30
0.0
 70
     1
  0
VERTEX
  5
7F3E
  8
0
 10
4591.676113691904
 20
2687.441581041609
 30
0.0
  0
VERTEX
  5
7F3F
  8
0
 10
3799.676117983459
 20
2687.441581041609
 30
0.0
  0
VERTEX
  5
7F40
  8
0
 10
3799.676117983459
 20
2837.941581041608
 30
0.0
  0
VERTEX
  5
7F41
  8
0
 10
4591.676113691904
 20
2837.941581041608
 30
0.0
  0
SEQEND
  5
838A
  8
0
  0
POLYLINE
  5
30D3
  8
0
 66
     1
 10
0.0
 20
0.0
 30
0.0
 70
     1
  0
VERTEX
  5
7F42
  8
0
 10
2993.676123705517
 20
2897.9415834258
 30
0.0
  0
VERTEX
  5
7F43
  8
0
 10
5397.676107969863
 20
2897.9415834258
 30
0.0
  0
VERTEX
  5
7F44
  8
0
 10
5397.676107969863
 20
2883.941584856311
 30
0.0
  0
VERTEX
  5
7F45
  8
0
 10
2993.676123705517
 20
2883.941584856311
 30
0.0
  0
SEQEND
  5
838B
  8
0
  0
POLYLINE
  5
30D4
  8
0
 66
     1
 10
0.0
 20
0.0
 30
0.0
 70
     1
  0
VERTEX
  5
7F46
  8
0
 10
2993.676123705517
 20
2386.441590887558
 30
0.0
  0
VERTEX
  5
7F47
  8
0
 10
3007.676122274984
 20
2386.441590887558
 30
0.0
  0
VERTEX
  5
7F48
  8
0
 10
3007.676122274984
 20
2883.941584856311
 30
0.0
  0
VERTEX
  5
7F49
  8
0
 10
2993.676123705517
 20
2883.941584856311
 30
0.0
  0
SEQEND
  5
838C
  8
0
  0
POLYLINE
  5
30D5
  8
0
 66
     1
 10
0.0
 20
0.0
 30
0.0
 70
     1
  0
VERTEX
  5
7F4A
  8
0
 10
3007.676122274984
 20
2883.941584856311
 30
0.0
  0
VERTEX
  5
7F4B
  8
0
 10
5383.676109400384
 20
2883.941584856311
 30
0.0
  0
VERTEX
  5
7F4C
  8
0
 10
5383.676109400384
 20
2837.941581041608
 30
0.0
  0
VERTEX
  5
7F4D
  8
0
 10
3007.676122274977
 20
2837.941581041608
 30
0.0
  0
SEQEND
  5
838D
  8
0
  0
POLYLINE
  5
30D6
  8
0
 66
     1
 10
0.0
 20
0.0
 30
0.0
 70
     1
  0
VERTEX
  5
7F4E
  8
0
 10
3007.676122274984
 20
2687.441581041609
 30
0.0
  0
VERTEX
  5
7F4F
  8
0
 10
3799.676117983443
 20
2687.441581041609
 30
0.0
  0
VERTEX
  5
7F50
  8
0
 10
3799.676117983443
 20
2837.941581041608
 30
0.0
  0
VERTEX
  5
7F51
  8
0
 10
3007.676122274984
 20
2837.941581041608
 30
0.0
  0
SEQEND
  5
838E
  8
0
  0
POLYLINE
  5
30D7
  8
0
 66
     1
 10
0.0
 20
0.0
 30
0.0
 70
     1
  0
VERTEX
  5
7F52
  8
0
 10
5383.676109400384
 20
2687.441581041609
 30
0.0
  0
VERTEX
  5
7F53
  8
0
 10
4591.676113691904
 20
2687.441581041609
 30
0.0
  0
VERTEX
  5
7F54
  8
0
 10
4591.676113691904
 20
2837.941581041608
 30
0.0
  0
VERTEX
  5
7F55
  8
0
 10
5383.676109400384
 20
2837.941581041608
 30
0.0
  0
SEQEND
  5
838F
  8
0
  0
POLYLINE
  5
30D8
  8
0
 66
     1
 10
0.0
 20
0.0
 30
0.0
 70
     1
  0
VERTEX
  5
7F56
  8
0
 10
2993.676123705517
 20
2372.441592318065
 30
0.0
  0
VERTEX
  5
7F57
  8
0
 10
5397.676107969863
 20
2372.441592318065
 30
0.0
  0
VERTEX
  5
7F58
  8
0
 10
5397.676107969863
 20
2386.441590887558
 30
0.0
  0
VERTEX
  5
7F59
  8
0
 10
2993.676123705517
 20
2386.441590887558
 30
0.0
  0
SEQEND
  5
8390
  8
0
  0
POLYLINE
  5
30ED
  8
0
 66
     1
 10
0.0
 20
0.0
 30
0.0
 70
     1
  0
VERTEX
  5
7F5A
  8
0
 10
2993.676123705517
 20
4372.441592318061
 30
0.0
  0
VERTEX
  5
7F5B
  8
0
 10
5397.676107969863
 20
4372.441592318061
 30
0.0
  0
VERTEX
  5
7F5C
  8
0
 10
5397.676107969863
 20
4386.44159088755
 30
0.0
  0
VERTEX
  5
7F5D
  8
0
 10
2993.676123705517
 20
4386.44159088755
 30
0.0
  0
SEQEND
  5
8391
  8
0
  0
POLYLINE
  5
30EE
  8
0
 66
     1
 10
0.0
 20
0.0
 30
0.0
 70
     1
  0
VERTEX
  5
7F5E
  8
0
 10
5383.676109400384
 20
4386.4415810416
 30
0.0
  0
VERTEX
  5
7F5F
  8
0
 10
4591.676113691904
 20
4386.4415810416
 30
0.0
  0
VERTEX
  5
7F60
  8
0
 10
4591.676113691904
 20
4536.941581041599
 30
0.0
  0
VERTEX
  5
7F61
  8
0
 10
5383.676109400384
 20
4536.941581041599
 30
0.0
  0
SEQEND
  5
8392
  8
0
  0
POLYLINE
  5
30EF
  8
0
 66
     1
 10
0.0
 20
0.0
 30
0.0
 70
     1
  0
VERTEX
  5
7F62
  8
0
 10
5383.676109400384
 20
4536.941581041599
 30
0.0
  0
VERTEX
  5
7F63
  8
0
 10
4591.676113691904
 20
4536.941581041599
 30
0.0
  0
VERTEX
  5
7F64
  8
0
 10
4591.676113691904
 20
4687.441581041599
 30
0.0
  0
VERTEX
  5
7F65
  8
0
 10
5383.676109400384
 20
4687.441581041599
 30
0.0
  0
SEQEND
  5
8393
  8
0
  0
POLYLINE
  5
30F0
  8
0
 66
     1
 10
0.0
 20
0.0
 30
0.0
 70
     1
  0
VERTEX
  5
7F66
  8
0
 10
5383.676109400384
 20
4687.441581041599
 30
0.0
  0
VERTEX
  5
7F67
  8
0
 10
4591.676113691904
 20
4687.441581041599
 30
0.0
  0
VERTEX
  5
7F68
  8
0
 10
4591.676113691904
 20
4837.941581041599
 30
0.0
  0
VERTEX
  5
7F69
  8
0
 10
5383.676109400384
 20
4837.941581041599
 30
0.0
  0
SEQEND
  5
8394
  8
0
  0
POLYLINE
  5
30F1
  8
0
 66
     1
 10
0.0
 20
0.0
 30
0.0
 70
     1
  0
VERTEX
  5
7F6A
  8
0
 10
3007.676122274984
 20
4386.4415810416
 30
0.0
  0
VERTEX
  5
7F6B
  8
0
 10
3799.676117983443
 20
4386.4415810416
 30
0.0
  0
VERTEX
  5
7F6C
  8
0
 10
3799.676117983443
 20
4536.941581041599
 30
0.0
  0
VERTEX
  5
7F6D
  8
0
 10
3007.676122274984
 20
4536.941581041599
 30
0.0
  0
SEQEND
  5
8395
  8
0
  0
POLYLINE
  5
30F2
  8
0
 66
     1
 10
0.0
 20
0.0
 30
0.0
 70
     1
  0
VERTEX
  5
7F6E
  8
0
 10
3007.676122274984
 20
4536.941581041599
 30
0.0
  0
VERTEX
  5
7F6F
  8
0
 10
3799.676117983443
 20
4536.941581041599
 30
0.0
  0
VERTEX
  5
7F70
  8
0
 10
3799.676117983443
 20
4687.441581041599
 30
0.0
  0
VERTEX
  5
7F71
  8
0
 10
3007.676122274984
 20
4687.441581041599
 30
0.0
  0
SEQEND
  5
8396
  8
0
  0
POLYLINE
  5
30F3
  8
0
 66
     1
 10
0.0
 20
0.0
 30
0.0
 70
     1
  0
VERTEX
  5
7F72
  8
0
 10
3007.676122274984
 20
4687.441581041599
 30
0.0
  0
VERTEX
  5
7F73
  8
0
 10
3799.676117983443
 20
4687.441581041599
 30
0.0
  0
VERTEX
  5
7F74
  8
0
 10
3799.676117983443
 20
4837.941581041599
 30
0.0
  0
VERTEX
  5
7F75
  8
0
 10
3007.676122274984
 20
4837.941581041599
 30
0.0
  0
SEQEND
  5
8397
  8
0
  0
POLYLINE
  5
30F4
  8
0
 66
     1
 10
0.0
 20
0.0
 30
0.0
 70
     1
  0
VERTEX
  5
7F76
  8
0
 10
3007.676122274984
 20
4883.941584856302
 30
0.0
  0
VERTEX
  5
7F77
  8
0
 10
5383.676109400384
 20
4883.941584856302
 30
0.0
  0
VERTEX
  5
7F78
  8
0
 10
5383.676109400384
 20
4837.941581041599
 30
0.0
  0
VERTEX
  5
7F79
  8
0
 10
3007.676122274977
 20
4837.941581041599
 30
0.0
  0
SEQEND
  5
8398
  8
0
  0
POLYLINE
  5
30F5
  8
0
 66
     1
 10
0.0
 20
0.0
 30
0.0
 70
     1
  0
VERTEX
  5
7F7A
  8
0
 10
2993.676123705517
 20
4386.44159088755
 30
0.0
  0
VERTEX
  5
7F7B
  8
0
 10
3007.676122274984
 20
4386.44159088755
 30
0.0
  0
VERTEX
  5
7F7C
  8
0
 10
3007.676122274984
 20
4883.941584856302
 30
0.0
  0
VERTEX
  5
7F7D
  8
0
 10
2993.676123705517
 20
4883.941584856302
 30
0.0
  0
SEQEND
  5
8399
  8
0
  0
POLYLINE
  5
30F6
  8
0
 66
     1
 10
0.0
 20
0.0
 30
0.0
 70
     1
  0
VERTEX
  5
7F7E
  8
0
 10
2993.676123705517
 20
4897.941583425796
 30
0.0
  0
VERTEX
  5
7F7F
  8
0
 10
5397.676107969863
 20
4897.941583425796
 30
0.0
  0
VERTEX
  5
7F80
  8
0
 10
5397.676107969863
 20
4883.941584856302
 30
0.0
  0
VERTEX
  5
7F81
  8
0
 10
2993.676123705517
 20
4883.941584856302
 30
0.0
  0
SEQEND
  5
839A
  8
0
  0
POLYLINE
  5
30F7
  8
0
 66
     1
 10
0.0
 20
0.0
 30
0.0
 70
     1
  0
VERTEX
  5
7F82
  8
0
 10
4591.676113691904
 20
4687.441581041599
 30
0.0
  0
VERTEX
  5
7F83
  8
0
 10
3799.676117983459
 20
4687.441581041599
 30
0.0
  0
VERTEX
  5
7F84
  8
0
 10
3799.676117983459
 20
4837.941581041599
 30
0.0
  0
VERTEX
  5
7F85
  8
0
 10
4591.676113691904
 20
4837.941581041599
 30
0.0
  0
SEQEND
  5
839B
  8
0
  0
POLYLINE
  5
30F8
  8
0
 66
     1
 10
0.0
 20
0.0
 30
0.0
 70
     1
  0
VERTEX
  5
7F86
  8
0
 10
4591.676113691904
 20
4536.941581041599
 30
0.0
  0
VERTEX
  5
7F87
  8
0
 10
3799.676117983459
 20
4536.941581041599
 30
0.0
  0
VERTEX
  5
7F88
  8
0
 10
3799.676117983459
 20
4687.441581041599
 30
0.0
  0
VERTEX
  5
7F89
  8
0
 10
4591.676113691904
 20
4687.441581041599
 30
0.0
  0
SEQEND
  5
839C
  8
0
  0
POLYLINE
  5
30F9
  8
0
 66
     1
 10
0.0
 20
0.0
 30
0.0
 70
     1
  0
VERTEX
  5
7F8A
  8
0
 10
4591.676113691904
 20
4386.4415810416
 30
0.0
  0
VERTEX
  5
7F8B
  8
0
 10
3799.676117983459
 20
4386.4415810416
 30
0.0
  0
VERTEX
  5
7F8C
  8
0
 10
3799.676117983459
 20
4536.941581041599
 30
0.0
  0
VERTEX
  5
7F8D
  8
0
 10
4591.676113691904
 20
4536.941581041599
 30
0.0
  0
SEQEND
  5
839D
  8
0
  0
POLYLINE
  5
30FA
  8
0
 66
     1
 10
0.0
 20
0.0
 30
0.0
 70
     1
  0
VERTEX
  5
7F8E
  8
0
 10
5397.676107969863
 20
4386.44159088755
 30
0.0
  0
VERTEX
  5
7F8F
  8
0
 10
5383.676109400384
 20
4386.44159088755
 30
0.0
  0
VERTEX
  5
7F90
  8
0
 10
5383.676109400384
 20
4883.941584856302
 30
0.0
  0
VERTEX
  5
7F91
  8
0
 10
5397.676107969863
 20
4883.941584856302
 30
0.0
  0
SEQEND
  5
839E
  8
0
  0
POLYLINE
  5
30FB
  8
0
 66
     1
 10
0.0
 20
0.0
 30
0.0
 70
     1
  0
VERTEX
  5
7F92
  8
0
 10
812.0000023951206
 20
4372.441592318061
 30
0.0
  0
VERTEX
  5
7F93
  8
0
 10
2423.999990951019
 20
4372.441592318061
 30
0.0
  0
VERTEX
  5
7F94
  8
0
 10
2423.999990951019
 20
4386.441590887556
 30
0.0
  0
VERTEX
  5
7F95
  8
0
 10
812.0000023951206
 20
4386.441590887556
 30
0.0
  0
SEQEND
  5
839F
  8
0
  0
POLYLINE
  5
30FC
  8
0
 66
     1
 10
0.0
 20
0.0
 30
0.0
 70
     1
  0
VERTEX
  5
7F96
  8
0
 10
2423.999990951019
 20
4386.44159088755
 30
0.0
  0
VERTEX
  5
7F97
  8
0
 10
2409.999992381541
 20
4386.44159088755
 30
0.0
  0
VERTEX
  5
7F98
  8
0
 10
2409.999992381541
 20
4883.941584856302
 30
0.0
  0
VERTEX
  5
7F99
  8
0
 10
2423.999990951019
 20
4883.941584856302
 30
0.0
  0
SEQEND
  5
83A0
  8
0
  0
POLYLINE
  5
30FD
  8
0
 66
     1
 10
0.0
 20
0.0
 30
0.0
 70
     1
  0
VERTEX
  5
7F9A
  8
0
 10
2409.999992381534
 20
4386.4415810416
 30
0.0
  0
VERTEX
  5
7F9B
  8
0
 10
1617.999996673074
 20
4386.4415810416
 30
0.0
  0
VERTEX
  5
7F9C
  8
0
 10
1617.999996673074
 20
4536.941581041599
 30
0.0
  0
VERTEX
  5
7F9D
  8
0
 10
2409.999992381534
 20
4536.941581041599
 30
0.0
  0
SEQEND
  5
83A1
  8
0
  0
POLYLINE
  5
30FE
  8
0
 66
     1
 10
0.0
 20
0.0
 30
0.0
 70
     1
  0
VERTEX
  5
7F9E
  8
0
 10
2409.999992381534
 20
4536.941581041599
 30
0.0
  0
VERTEX
  5
7F9F
  8
0
 10
1617.999996673074
 20
4536.941581041599
 30
0.0
  0
VERTEX
  5
7FA0
  8
0
 10
1617.999996673074
 20
4687.441581041599
 30
0.0
  0
VERTEX
  5
7FA1
  8
0
 10
2409.999992381534
 20
4687.441581041599
 30
0.0
  0
SEQEND
  5
83A2
  8
0
  0
POLYLINE
  5
30FF
  8
0
 66
     1
 10
0.0
 20
0.0
 30
0.0
 70
     1
  0
VERTEX
  5
7FA2
  8
0
 10
2409.999992381534
 20
4687.441581041599
 30
0.0
  0
VERTEX
  5
7FA3
  8
0
 10
1617.999996673074
 20
4687.441581041599
 30
0.0
  0
VERTEX
  5
7FA4
  8
0
 10
1617.999996673074
 20
4837.941581041599
 30
0.0
  0
VERTEX
  5
7FA5
  8
0
 10
2409.999992381534
 20
4837.941581041599
 30
0.0
  0
SEQEND
  5
83A3
  8
0
  0
POLYLINE
  5
3100
  8
0
 66
     1
 10
0.0
 20
0.0
 30
0.0
 70
     1
  0
VERTEX
  5
7FA6
  8
0
 10
812.0000023951206
 20
4897.941583425796
 30
0.0
  0
VERTEX
  5
7FA7
  8
0
 10
2423.999990951019
 20
4897.941583425796
 30
0.0
  0
VERTEX
  5
7FA8
  8
0
 10
2423.999990951019
 20
4883.941584856302
 30
0.0
  0
VERTEX
  5
7FA9
  8
0
 10
812.0000023951206
 20
4883.941584856302
 30
0.0
  0
SEQEND
  5
83A4
  8
0
  0
POLYLINE
  5
3101
  8
0
 66
     1
 10
0.0
 20
0.0
 30
0.0
 70
     1
  0
VERTEX
  5
7FAA
  8
0
 10
812.0000023951206
 20
4386.44159088755
 30
0.0
  0
VERTEX
  5
7FAB
  8
0
 10
826.0000009646166
 20
4386.44159088755
 30
0.0
  0
VERTEX
  5
7FAC
  8
0
 10
826.0000009646166
 20
4883.941584856302
 30
0.0
  0
VERTEX
  5
7FAD
  8
0
 10
812.0000023951206
 20
4883.941584856302
 30
0.0
  0
SEQEND
  5
83A5
  8
0
  0
POLYLINE
  5
3102
  8
0
 66
     1
 10
0.0
 20
0.0
 30
0.0
 70
     1
  0
VERTEX
  5
7FAE
  8
0
 10
826.0000009646166
 20
4883.941584856302
 30
0.0
  0
VERTEX
  5
7FAF
  8
0
 10
2409.999992381541
 20
4883.941584856302
 30
0.0
  0
VERTEX
  5
7FB0
  8
0
 10
2409.999992381534
 20
4837.941581041599
 30
0.0
  0
VERTEX
  5
7FB1
  8
0
 10
826.0000009646022
 20
4837.941581041599
 30
0.0
  0
SEQEND
  5
83A6
  8
0
  0
POLYLINE
  5
3103
  8
0
 66
     1
 10
0.0
 20
0.0
 30
0.0
 70
     1
  0
VERTEX
  5
7FB2
  8
0
 10
826.0000009646166
 20
4687.441581041599
 30
0.0
  0
VERTEX
  5
7FB3
  8
0
 10
1617.99999667306
 20
4687.441581041599
 30
0.0
  0
VERTEX
  5
7FB4
  8
0
 10
1617.99999667306
 20
4837.941581041599
 30
0.0
  0
VERTEX
  5
7FB5
  8
0
 10
826.0000009646166
 20
4837.941581041599
 30
0.0
  0
SEQEND
  5
83A7
  8
0
  0
POLYLINE
  5
3104
  8
0
 66
     1
 10
0.0
 20
0.0
 30
0.0
 70
     1
  0
VERTEX
  5
7FB6
  8
0
 10
826.0000009646166
 20
4536.941581041599
 30
0.0
  0
VERTEX
  5
7FB7
  8
0
 10
1617.99999667306
 20
4536.941581041599
 30
0.0
  0
VERTEX
  5
7FB8
  8
0
 10
1617.99999667306
 20
4687.441581041599
 30
0.0
  0
VERTEX
  5
7FB9
  8
0
 10
826.0000009646166
 20
4687.441581041599
 30
0.0
  0
SEQEND
  5
83A8
  8
0
  0
POLYLINE
  5
3105
  8
0
 66
     1
 10
0.0
 20
0.0
 30
0.0
 70
     1
  0
VERTEX
  5
7FBA
  8
0
 10
826.0000009646166
 20
4386.4415810416
 30
0.0
  0
VERTEX
  5
7FBB
  8
0
 10
1617.99999667306
 20
4386.4415810416
 30
0.0
  0
VERTEX
  5
7FBC
  8
0
 10
1617.99999667306
 20
4536.941581041599
 30
0.0
  0
VERTEX
  5
7FBD
  8
0
 10
826.0000009646166
 20
4536.941581041599
 30
0.0
  0
SEQEND
  5
83A9
  8
0
  0
POLYLINE
  5
3106
  8
0
 66
     1
 10
0.0
 20
0.0
 30
0.0
 70
     1
  0
VERTEX
  5
7FBE
  8
0
 10
5200.676110473255
 20
2372.441592318065
 30
0.0
  0
VERTEX
  5
7FBF
  8
0
 10
5170.676110473257
 20
2372.441592318065
 30
0.0
  0
VERTEX
  5
7FC0
  8
0
 10
5170.676110473257
 20
2222.441592318066
 30
0.0
  0
VERTEX
  5
7FC1
  8
0
 10
5200.676110473255
 20
2222.441592318066
 30
0.0
  0
SEQEND
  5
83AA
  8
0
  0
POLYLINE
  5
3107
  8
0
 66
     1
 10
0.0
 20
0.0
 30
0.0
 70
     1
  0
VERTEX
  5
7FC2
  8
0
 10
3190.676121202117
 20
2372.441592318065
 30
0.0
  0
VERTEX
  5
7FC3
  8
0
 10
3220.676121202116
 20
2372.441592318065
 30
0.0
  0
VERTEX
  5
7FC4
  8
0
 10
3220.676121202116
 20
2222.441592318066
 30
0.0
  0
VERTEX
  5
7FC5
  8
0
 10
3190.676121202117
 20
2222.441592318066
 30
0.0
  0
SEQEND
  5
83AB
  8
0
  0
POLYLINE
  5
3108
  8
0
 66
     1
 10
0.0
 20
0.0
 30
0.0
 70
     1
  0
VERTEX
  5
7FC6
  8
0
 10
2226.999993454409
 20
2372.441592318065
 30
0.0
  0
VERTEX
  5
7FC7
  8
0
 10
2196.999993454413
 20
2372.441592318065
 30
0.0
  0
VERTEX
  5
7FC8
  8
0
 10
2196.999993454413
 20
2222.441592318069
 30
0.0
  0
VERTEX
  5
7FC9
  8
0
 10
2226.999993454409
 20
2222.441592318069
 30
0.0
  0
SEQEND
  5
83AC
  8
0
  0
POLYLINE
  5
3109
  8
0
 66
     1
 10
0.0
 20
0.0
 30
0.0
 70
     1
  0
VERTEX
  5
7FCA
  8
0
 10
1008.999999891725
 20
2372.441592318065
 30
0.0
  0
VERTEX
  5
7FCB
  8
0
 10
1038.999999891725
 20
2372.441592318065
 30
0.0
  0
VERTEX
  5
7FCC
  8
0
 10
1038.999999891725
 20
2222.441592318069
 30
0.0
  0
VERTEX
  5
7FCD
  8
0
 10
1008.999999891725
 20
2222.441592318069
 30
0.0
  0
SEQEND
  5
83AD
  8
0
  0
POLYLINE
  5
310E
  8
0
 66
     1
 10
0.0
 20
0.0
 30
0.0
 70
     1
  0
VERTEX
  5
7FCE
  8
0
 10
5200.676110473255
 20
4372.441592318064
 30
0.0
  0
VERTEX
  5
7FCF
  8
0
 10
5170.676110473257
 20
4372.441592318064
 30
0.0
  0
VERTEX
  5
7FD0
  8
0
 10
5170.676110473257
 20
4222.441592318062
 30
0.0
  0
VERTEX
  5
7FD1
  8
0
 10
5200.676110473255
 20
4222.441592318062
 30
0.0
  0
SEQEND
  5
83AE
  8
0
  0
POLYLINE
  5
310F
  8
0
 66
     1
 10
0.0
 20
0.0
 30
0.0
 70
     1
  0
VERTEX
  5
7FD2
  8
0
 10
3190.676121202117
 20
4372.441592318064
 30
0.0
  0
VERTEX
  5
7FD3
  8
0
 10
3220.676121202116
 20
4372.441592318064
 30
0.0
  0
VERTEX
  5
7FD4
  8
0
 10
3220.676121202116
 20
4222.441592318062
 30
0.0
  0
VERTEX
  5
7FD5
  8
0
 10
3190.676121202117
 20
4222.441592318062
 30
0.0
  0
SEQEND
  5
83AF
  8
0
  0
POLYLINE
  5
3110
  8
0
 66
     1
 10
0.0
 20
0.0
 30
0.0
 70
     1
  0
VERTEX
  5
7FD6
  8
0
 10
2226.999993454409
 20
4372.441592318064
 30
0.0
  0
VERTEX
  5
7FD7
  8
0
 10
2196.999993454413
 20
4372.441592318064
 30
0.0
  0
VERTEX
  5
7FD8
  8
0
 10
2196.999993454413
 20
4222.441592318062
 30
0.0
  0
VERTEX
  5
7FD9
  8
0
 10
2226.999993454409
 20
4222.441592318062
 30
0.0
  0
SEQEND
  5
83B0
  8
0
  0
POLYLINE
  5
3111
  8
0
 66
     1
 10
0.0
 20
0.0
 30
0.0
 70
     1
  0
VERTEX
  5
7FDA
  8
0
 10
1008.999999891725
 20
4372.441592318064
 30
0.0
  0
VERTEX
  5
7FDB
  8
0
 10
1038.999999891725
 20
4372.441592318064
 30
0.0
  0
VERTEX
  5
7FDC
  8
0
 10
1038.999999891725
 20
4222.441592318062
 30
0.0
  0
VERTEX
  5
7FDD
  8
0
 10
1008.999999891725
 20
4222.441592318062
 30
0.0
  0
SEQEND
  5
83B1
  8
0
  0
POLYLINE
  5
3130
  8
0
 66
     1
 10
0.0
 20
0.0
 30
0.0
 70
     1
  0
VERTEX
  5
7FDE
  8
0
 10
9747.449574772234
 20
2899.941585616279
 30
0.0
  0
VERTEX
  5
7FDF
  8
0
 10
10197.44956761967
 20
2899.941585616279
 30
0.0
  0
VERTEX
  5
7FE0
  8
0
 10
10197.44956761967
 20
2885.94158704678
 30
0.0
  0
VERTEX
  5
7FE1
  8
0
 10
9747.449574772234
 20
2885.94158704678
 30
0.0
  0
SEQEND
  5
83B2
  8
0
  0
POLYLINE
  5
3131
  8
0
 66
     1
 10
0.0
 20
0.0
 30
0.0
 70
     1
  0
VERTEX
  5
7FE2
  8
0
 10
10197.44956761967
 20
2388.441593078041
 30
0.0
  0
VERTEX
  5
7FE3
  8
0
 10
9747.449574772234
 20
2388.441593078041
 30
0.0
  0
VERTEX
  5
7FE4
  8
0
 10
9747.449574772234
 20
2373.44159341331
 30
0.0
  0
VERTEX
  5
7FE5
  8
0
 10
10197.44956761967
 20
2373.44159341331
 30
0.0
  0
SEQEND
  5
83B3
  8
0
  0
POLYLINE
  5
3132
  8
0
 66
     1
 10
0.0
 20
0.0
 30
0.0
 70
     1
  0
VERTEX
  5
7FE6
  8
0
 10
9747.449574772234
 20
2885.94158704678
 30
0.0
  0
VERTEX
  5
7FE7
  8
0
 10
10197.44956761967
 20
2885.94158704678
 30
0.0
  0
VERTEX
  5
7FE8
  8
0
 10
10197.44956761967
 20
2388.441593078041
 30
0.0
  0
VERTEX
  5
7FE9
  8
0
 10
9747.449574772234
 20
2388.441593078041
 30
0.0
  0
SEQEND
  5
83B4
  8
0
  0
POLYLINE
  5
3133
  8
0
 66
     1
 10
0.0
 20
0.0
 30
0.0
 70
     1
  0
VERTEX
  5
7FEA
  8
0
 10
9747.449574772234
 20
4884.941585951545
 30
0.0
  0
VERTEX
  5
7FEB
  8
0
 10
10197.44956761967
 20
4884.941585951545
 30
0.0
  0
VERTEX
  5
7FEC
  8
0
 10
10197.44956761967
 20
4387.441591982794
 30
0.0
  0
VERTEX
  5
7FED
  8
0
 10
9747.449574772234
 20
4387.441591982794
 30
0.0
  0
SEQEND
  5
83B5
  8
0
  0
POLYLINE
  5
3134
  8
0
 66
     1
 10
0.0
 20
0.0
 30
0.0
 70
     1
  0
VERTEX
  5
7FEE
  8
0
 10
10197.44956761967
 20
4387.441591982794
 30
0.0
  0
VERTEX
  5
7FEF
  8
0
 10
9747.449574772234
 20
4387.441591982794
 30
0.0
  0
VERTEX
  5
7FF0
  8
0
 10
9747.449574772234
 20
4372.441592318066
 30
0.0
  0
VERTEX
  5
7FF1
  8
0
 10
10197.44956761967
 20
4372.441592318066
 30
0.0
  0
SEQEND
  5
83B6
  8
0
  0
POLYLINE
  5
3135
  8
0
 66
     1
 10
0.0
 20
0.0
 30
0.0
 70
     1
  0
VERTEX
  5
7FF2
  8
0
 10
9747.449574772234
 20
4898.941584521037
 30
0.0
  0
VERTEX
  5
7FF3
  8
0
 10
10197.44956761967
 20
4898.941584521037
 30
0.0
  0
VERTEX
  5
7FF4
  8
0
 10
10197.44956761967
 20
4884.941585951545
 30
0.0
  0
VERTEX
  5
7FF5
  8
0
 10
9747.449574772234
 20
4884.941585951545
 30
0.0
  0
SEQEND
  5
83B7
  8
0
  0
POLYLINE
  5
3136
  8
0
 66
     1
 10
0.0
 20
0.0
 30
0.0
 70
     1
  0
VERTEX
  5
7FF6
  8
0
 10
9777.449572268843
 20
4372.441592318066
 30
0.0
  0
VERTEX
  5
7FF7
  8
0
 10
9807.449572268833
 20
4372.441592318066
 30
0.0
  0
VERTEX
  5
7FF8
  8
0
 10
9807.449572268833
 20
4222.441592318075
 30
0.0
  0
VERTEX
  5
7FF9
  8
0
 10
9777.449572268843
 20
4222.441592318075
 30
0.0
  0
SEQEND
  5
83B8
  8
0
  0
POLYLINE
  5
3137
  8
0
 66
     1
 10
0.0
 20
0.0
 30
0.0
 70
     1
  0
VERTEX
  5
7FFA
  8
0
 10
10167.44957012306
 20
4372.441592318066
 30
0.0
  0
VERTEX
  5
7FFB
  8
0
 10
10137.44957012306
 20
4372.441592318066
 30
0.0
  0
VERTEX
  5
7FFC
  8
0
 10
10137.44957012306
 20
4222.441592318075
 30
0.0
  0
VERTEX
  5
7FFD
  8
0
 10
10167.44957012306
 20
4222.441592318075
 30
0.0
  0
SEQEND
  5
83B9
  8
0
  0
POLYLINE
  5
313A
  8
0
 66
     1
 10
0.0
 20
0.0
 30
0.0
 70
     1
  0
VERTEX
  5
7FFE
  8
0
 10
10167.44957012306
 20
2373.44159341331
 30
0.0
  0
VERTEX
  5
7FFF
  8
0
 10
10137.44957012306
 20
2373.44159341331
 30
0.0
  0
VERTEX
  5
8000
  8
0
 10
10137.44957012306
 20
2223.441593413309
 30
0.0
  0
VERTEX
  5
8001
  8
0
 10
10167.44957012306
 20
2223.441593413309
 30
0.0
  0
SEQEND
  5
83BA
  8
0
  0
POLYLINE
  5
313B
  8
0
 66
     1
 10
0.0
 20
0.0
 30
0.0
 70
     1
  0
VERTEX
  5
8002
  8
0
 10
9777.449572268843
 20
2373.44159341331
 30
0.0
  0
VERTEX
  5
8003
  8
0
 10
9807.449572268833
 20
2373.44159341331
 30
0.0
  0
VERTEX
  5
8004
  8
0
 10
9807.449572268833
 20
2223.441593413309
 30
0.0
  0
VERTEX
  5
8005
  8
0
 10
9777.449572268843
 20
2223.441593413309
 30
0.0
  0
SEQEND
  5
83BB
  8
0
  0
POLYLINE
  5
322E
  8
0
 66
     1
 10
0.0
 20
0.0
 30
0.0
 70
     1
  0
VERTEX
  5
8006
  8
0
 10
1461.999992619985
 20
18550.46742063045
 30
0.0
  0
VERTEX
  5
8007
  8
0
 10
1022.000005017743
 20
18550.46742063045
 30
0.0
  0
VERTEX
  5
8008
  8
0
 10
1022.000005017743
 20
18536.46741443159
 30
0.0
  0
VERTEX
  5
8009
  8
0
 10
1461.999992619985
 20
18536.46741443159
 30
0.0
  0
SEQEND
  5
83BC
  8
0
  0
POLYLINE
  5
322F
  8
0
 66
     1
 10
0.0
 20
0.0
 30
0.0
 70
     1
  0
VERTEX
  5
800A
  8
0
 10
1461.999992619985
 20
19047.96741459921
 30
0.0
  0
VERTEX
  5
800B
  8
0
 10
1022.000005017743
 20
19047.96741459921
 30
0.0
  0
VERTEX
  5
800C
  8
0
 10
1022.000005017743
 20
19061.9674207981
 30
0.0
  0
VERTEX
  5
800D
  8
0
 10
1461.999992619985
 20
19061.9674207981
 30
0.0
  0
SEQEND
  5
83BD
  8
0
  0
POLYLINE
  5
3230
  8
0
 66
     1
 10
0.0
 20
0.0
 30
0.0
 70
     1
  0
VERTEX
  5
800E
  8
0
 10
1022.000005017743
 20
18550.46742063045
 30
0.0
  0
VERTEX
  5
800F
  8
0
 10
1036.000003587235
 20
18550.46742063045
 30
0.0
  0
VERTEX
  5
8010
  8
0
 10
1036.000003587235
 20
19047.96741459921
 30
0.0
  0
VERTEX
  5
8011
  8
0
 10
1022.000005017743
 20
19047.96741459921
 30
0.0
  0
SEQEND
  5
83BE
  8
0
  0
POLYLINE
  5
3232
  8
0
 66
     1
 10
0.0
 20
0.0
 30
0.0
 70
     1
  0
VERTEX
  5
8012
  8
0
 10
1036.000003587235
 20
18550.46741078452
 30
0.0
  0
VERTEX
  5
8013
  8
0
 10
1447.999994050496
 20
18550.46741078452
 30
0.0
  0
VERTEX
  5
8014
  8
0
 10
1447.999994050496
 20
18700.96741078452
 30
0.0
  0
VERTEX
  5
8015
  8
0
 10
1036.000003587235
 20
18700.96741078452
 30
0.0
  0
SEQEND
  5
83BF
  8
0
  0
POLYLINE
  5
3233
  8
0
 66
     1
 10
0.0
 20
0.0
 30
0.0
 70
     1
  0
VERTEX
  5
8016
  8
0
 10
1036.000003587235
 20
18700.96741078452
 30
0.0
  0
VERTEX
  5
8017
  8
0
 10
1447.999994050496
 20
18700.96741078452
 30
0.0
  0
VERTEX
  5
8018
  8
0
 10
1447.999994050496
 20
18851.46741078452
 30
0.0
  0
VERTEX
  5
8019
  8
0
 10
1036.000003587235
 20
18851.46741078452
 30
0.0
  0
SEQEND
  5
83C0
  8
0
  0
POLYLINE
  5
3234
  8
0
 66
     1
 10
0.0
 20
0.0
 30
0.0
 70
     1
  0
VERTEX
  5
801A
  8
0
 10
1036.000003587235
 20
18851.46741078452
 30
0.0
  0
VERTEX
  5
801B
  8
0
 10
1447.999994050496
 20
18851.46741078452
 30
0.0
  0
VERTEX
  5
801C
  8
0
 10
1447.999994050496
 20
19001.96741078452
 30
0.0
  0
VERTEX
  5
801D
  8
0
 10
1036.000003587235
 20
19001.96741078452
 30
0.0
  0
SEQEND
  5
83C1
  8
0
  0
POLYLINE
  5
3235
  8
0
 66
     1
 10
0.0
 20
0.0
 30
0.0
 70
     1
  0
VERTEX
  5
801E
  8
0
 10
1036.000003587235
 20
19047.96741459921
 30
0.0
  0
VERTEX
  5
801F
  8
0
 10
1447.999994050496
 20
19047.96741459921
 30
0.0
  0
VERTEX
  5
8020
  8
0
 10
1447.999994050496
 20
19001.96741078452
 30
0.0
  0
VERTEX
  5
8021
  8
0
 10
1036.000003587224
 20
19001.96741078452
 30
0.0
  0
SEQEND
  5
83C2
  8
0
  0
POLYLINE
  5
3236
  8
0
 66
     1
 10
0.0
 20
0.0
 30
0.0
 70
     1
  0
VERTEX
  5
8022
  8
0
 10
1461.999992619995
 20
18550.46742063045
 30
0.0
  0
VERTEX
  5
8023
  8
0
 10
1447.999994050496
 20
18550.46742063045
 30
0.0
  0
VERTEX
  5
8024
  8
0
 10
1447.999994050496
 20
19047.96741459921
 30
0.0
  0
VERTEX
  5
8025
  8
0
 10
1461.999992619985
 20
19047.96741459921
 30
0.0
  0
SEQEND
  5
83C3
  8
0
  0
POLYLINE
  5
3239
  8
0
 66
     1
 10
0.0
 20
0.0
 30
0.0
 70
     1
  0
VERTEX
  5
8026
  8
0
 10
5631.028369425782
 20
18550.46742063045
 30
0.0
  0
VERTEX
  5
8027
  8
0
 10
5617.028370856306
 20
18550.46742063045
 30
0.0
  0
VERTEX
  5
8028
  8
0
 10
5617.028370856306
 20
19047.96741459921
 30
0.0
  0
VERTEX
  5
8029
  8
0
 10
5631.028369425782
 20
19047.96741459921
 30
0.0
  0
SEQEND
  5
83C4
  8
0
  0
POLYLINE
  5
323A
  8
0
 66
     1
 10
0.0
 20
0.0
 30
0.0
 70
     1
  0
VERTEX
  5
802A
  8
0
 10
5205.02838039302
 20
19047.96741459921
 30
0.0
  0
VERTEX
  5
802B
  8
0
 10
5617.028370856306
 20
19047.96741459921
 30
0.0
  0
VERTEX
  5
802C
  8
0
 10
5617.028370856291
 20
19001.96741078452
 30
0.0
  0
VERTEX
  5
802D
  8
0
 10
5205.02838039302
 20
19001.96741078452
 30
0.0
  0
SEQEND
  5
83C5
  8
0
  0
POLYLINE
  5
323B
  8
0
 66
     1
 10
0.0
 20
0.0
 30
0.0
 70
     1
  0
VERTEX
  5
802E
  8
0
 10
5205.02838039302
 20
18851.46741078452
 30
0.0
  0
VERTEX
  5
802F
  8
0
 10
5617.028370856291
 20
18851.46741078452
 30
0.0
  0
VERTEX
  5
8030
  8
0
 10
5617.028370856291
 20
19001.96741078452
 30
0.0
  0
VERTEX
  5
8031
  8
0
 10
5205.02838039302
 20
19001.96741078452
 30
0.0
  0
SEQEND
  5
83C6
  8
0
  0
POLYLINE
  5
323D
  8
0
 66
     1
 10
0.0
 20
0.0
 30
0.0
 70
     1
  0
VERTEX
  5
8032
  8
0
 10
5191.028381823554
 20
18550.46742063045
 30
0.0
  0
VERTEX
  5
8033
  8
0
 10
5205.02838039302
 20
18550.46742063045
 30
0.0
  0
VERTEX
  5
8034
  8
0
 10
5205.02838039302
 20
19047.96741459921
 30
0.0
  0
VERTEX
  5
8035
  8
0
 10
5191.028381823554
 20
19047.96741459921
 30
0.0
  0
SEQEND
  5
83C7
  8
0
  0
POLYLINE
  5
323E
  8
0
 66
     1
 10
0.0
 20
0.0
 30
0.0
 70
     1
  0
VERTEX
  5
8036
  8
0
 10
5631.028369425782
 20
19047.96741459921
 30
0.0
  0
VERTEX
  5
8037
  8
0
 10
5191.028381823554
 20
19047.96741459921
 30
0.0
  0
VERTEX
  5
8038
  8
0
 10
5191.028381823554
 20
19061.9674207981
 30
0.0
  0
VERTEX
  5
8039
  8
0
 10
5631.028369425782
 20
19061.9674207981
 30
0.0
  0
SEQEND
  5
83C8
  8
0
  0
POLYLINE
  5
323F
  8
0
 66
     1
 10
0.0
 20
0.0
 30
0.0
 70
     1
  0
VERTEX
  5
803A
  8
0
 10
5631.028369425782
 20
18550.46742063045
 30
0.0
  0
VERTEX
  5
803B
  8
0
 10
5191.028381823554
 20
18550.46742063045
 30
0.0
  0
VERTEX
  5
803C
  8
0
 10
5191.028381823554
 20
18536.46741443159
 30
0.0
  0
VERTEX
  5
803D
  8
0
 10
5631.028369425782
 20
18536.46741443159
 30
0.0
  0
SEQEND
  5
83C9
  8
0
  0
POLYLINE
  5
3240
  8
0
 66
     1
 10
0.0
 20
0.0
 30
-32.0
 70
     1
  0
VERTEX
  5
803E
  8
0
 10
9747.449574772243
 20
19047.96742222863
 30
-32.0
  0
VERTEX
  5
803F
  8
0
 10
10317.44957477224
 20
19047.96742222863
 30
-32.0
  0
VERTEX
  5
8040
  8
0
 10
10317.44957477224
 20
18551.46742029521
 30
-32.0
  0
VERTEX
  5
8041
  8
0
 10
9747.449574772243
 20
18551.46742029521
 30
-32.0
  0
SEQEND
  5
83CA
  8
0
  0
POLYLINE
  5
3241
  8
0
 66
     1
 10
0.0
 20
0.0
 30
-32.0
 70
     1
  0
VERTEX
  5
8042
  8
0
 10
10317.44957477224
 20
18551.46742029521
 30
-32.0
  0
VERTEX
  5
8043
  8
0
 10
9747.449574772243
 20
18551.46742029521
 30
-32.0
  0
VERTEX
  5
8044
  8
0
 10
9747.449574772243
 20
18536.4674206305
 30
-32.0
  0
VERTEX
  5
8045
  8
0
 10
10317.44957477224
 20
18536.4674206305
 30
-32.0
  0
SEQEND
  5
83CB
  8
0
  0
POLYLINE
  5
3242
  8
0
 66
     1
 10
0.0
 20
0.0
 30
0.0
 70
     1
  0
VERTEX
  5
8046
  8
0
 10
9747.449574772243
 20
19061.9674207981
 30
0.0
  0
VERTEX
  5
8047
  8
0
 10
10317.44957477224
 20
19061.9674207981
 30
0.0
  0
VERTEX
  5
8048
  8
0
 10
10317.44957477224
 20
19047.96742222863
 30
0.0
  0
VERTEX
  5
8049
  8
0
 10
9747.449574772243
 20
19047.96742222863
 30
0.0
  0
SEQEND
  5
83CC
  8
0
  0
POLYLINE
  5
3246
  8
0
 66
     1
 10
0.0
 20
0.0
 30
0.0
 70
     1
  0
VERTEX
  5
804A
  8
0
 10
12619.12569561671
 20
17151.72011739778
 30
0.0
  0
VERTEX
  5
804B
  8
0
 10
0.0000000000030974
 20
17151.72011739778
 30
0.0
  0
VERTEX
  5
804C
  8
0
 10
0.0000000000030974
 20
10986.22551982466
 30
0.0
  0
VERTEX
  5
804D
  8
0
 10
12619.12569561671
 20
10986.22551982466
 30
0.0
  0
SEQEND
  5
83CD
  8
0
  0
POLYLINE
  5
3247
  8
0
 66
     1
 10
0.0
 20
0.0
 30
0.0
 70
     1
  0
VERTEX
  5
804E
  8
0
 10
12619.12569561671
 20
19893.71472512602
 30
0.0
  0
VERTEX
  5
804F
  8
0
 10
0.0000000000030974
 20
19893.71472512602
 30
0.0
  0
VERTEX
  5
8050
  8
0
 10
0.0000000000030974
 20
17705.72011739778
 30
0.0
  0
VERTEX
  5
8051
  8
0
 10
12619.12569561671
 20
17705.72011739778
 30
0.0
  0
SEQEND
  5
83CE
  8
0
  0
POLYLINE
  5
3248
  8
0
 66
     1
 10
0.0
 20
0.0
 30
0.0
 70
     1
  0
VERTEX
  5
8052
  8
0
 10
812.0000023951574
 20
14342.47281416508
 30
0.0
  0
VERTEX
  5
8053
  8
0
 10
1631.999995242603
 20
14342.47281416508
 30
0.0
  0
VERTEX
  5
8054
  8
0
 10
1631.999995242603
 20
14328.47281559559
 30
0.0
  0
VERTEX
  5
8055
  8
0
 10
812.0000023951574
 20
14328.47281559559
 30
0.0
  0
SEQEND
  5
83CF
  8
0
  0
POLYLINE
  5
3249
  8
0
 66
     1
 10
0.0
 20
0.0
 30
0.0
 70
     1
  0
VERTEX
  5
8056
  8
0
 10
1617.9999966731
 20
14328.47281559559
 30
0.0
  0
VERTEX
  5
8057
  8
0
 10
1631.999995242603
 20
14328.47281559559
 30
0.0
  0
VERTEX
  5
8058
  8
0
 10
1631.999995242603
 20
13830.97282162684
 30
0.0
  0
VERTEX
  5
8059
  8
0
 10
1617.9999966731
 20
13830.97282162684
 30
0.0
  0
SEQEND
  5
83D0
  8
0
  0
POLYLINE
  5
324A
  8
0
 66
     1
 10
0.0
 20
0.0
 30
0.0
 70
     1
  0
VERTEX
  5
805A
  8
0
 10
1631.999995242603
 20
13830.97282162684
 30
0.0
  0
VERTEX
  5
805B
  8
0
 10
812.0000023951574
 20
13830.97282162684
 30
0.0
  0
VERTEX
  5
805C
  8
0
 10
812.0000023951574
 20
13815.9728219621
 30
0.0
  0
VERTEX
  5
805D
  8
0
 10
1631.999995242603
 20
13815.9728219621
 30
0.0
  0
SEQEND
  5
83D1
  8
0
  0
POLYLINE
  5
324B
  8
0
 66
     1
 10
0.0
 20
0.0
 30
0.0
 70
     1
  0
VERTEX
  5
805E
  8
0
 10
812.0000023951574
 20
13830.97282162683
 30
0.0
  0
VERTEX
  5
805F
  8
0
 10
826.0000009646384
 20
13830.97282162683
 30
0.0
  0
VERTEX
  5
8060
  8
0
 10
826.0000009646384
 20
14328.47281559559
 30
0.0
  0
VERTEX
  5
8061
  8
0
 10
812.0000023951574
 20
14328.47281559559
 30
0.0
  0
SEQEND
  5
83D2
  8
0
  0
POLYLINE
  5
324C
  8
0
 66
     1
 10
0.0
 20
0.0
 30
0.0
 70
     1
  0
VERTEX
  5
8062
  8
0
 10
826.0000009646384
 20
14328.47281559559
 30
0.0
  0
VERTEX
  5
8063
  8
0
 10
1617.9999966731
 20
14328.47281559559
 30
0.0
  0
VERTEX
  5
8064
  8
0
 10
1617.9999966731
 20
14282.47281178088
 30
0.0
  0
VERTEX
  5
8065
  8
0
 10
826.0000009646384
 20
14282.47281178088
 30
0.0
  0
SEQEND
  5
83D3
  8
0
  0
POLYLINE
  5
324E
  8
0
 66
     1
 10
0.0
 20
0.0
 30
0.0
 70
     1
  0
VERTEX
  5
8066
  8
0
 10
826.0000009646384
 20
14131.97281178088
 30
0.0
  0
VERTEX
  5
8067
  8
0
 10
1617.9999966731
 20
14131.97281178088
 30
0.0
  0
VERTEX
  5
8068
  8
0
 10
1617.9999966731
 20
14282.47281178088
 30
0.0
  0
VERTEX
  5
8069
  8
0
 10
826.0000009646384
 20
14282.47281178088
 30
0.0
  0
SEQEND
  5
83D4
  8
0
  0
POLYLINE
  5
324F
  8
0
 66
     1
 10
0.0
 20
0.0
 30
0.0
 70
     1
  0
VERTEX
  5
806A
  8
0
 10
826.0000009646384
 20
13981.47281178088
 30
0.0
  0
VERTEX
  5
806B
  8
0
 10
1617.9999966731
 20
13981.47281178088
 30
0.0
  0
VERTEX
  5
806C
  8
0
 10
1617.9999966731
 20
14131.97281178088
 30
0.0
  0
VERTEX
  5
806D
  8
0
 10
826.0000009646384
 20
14131.97281178088
 30
0.0
  0
SEQEND
  5
83D5
  8
0
  0
POLYLINE
  5
3250
  8
0
 66
     1
 10
0.0
 20
0.0
 30
0.0
 70
     1
  0
VERTEX
  5
806E
  8
0
 10
826.0000009646384
 20
13830.97281178088
 30
0.0
  0
VERTEX
  5
806F
  8
0
 10
1617.9999966731
 20
13830.97281178088
 30
0.0
  0
VERTEX
  5
8070
  8
0
 10
1617.9999966731
 20
13981.47281178088
 30
0.0
  0
VERTEX
  5
8071
  8
0
 10
826.0000009646384
 20
13981.47281178088
 30
0.0
  0
SEQEND
  5
83D6
  8
0
  0
POLYLINE
  5
3251
  8
0
 66
     1
 10
0.0
 20
0.0
 30
0.0
 70
     1
  0
VERTEX
  5
8072
  8
0
 10
2215.676126566541
 20
13830.97282162683
 30
0.0
  0
VERTEX
  5
8073
  8
0
 10
3007.676122275001
 20
13830.97282162683
 30
0.0
  0
VERTEX
  5
8074
  8
0
 10
3007.676122275001
 20
14131.97281178088
 30
0.0
  0
VERTEX
  5
8075
  8
0
 10
2215.676126566541
 20
14131.97281178088
 30
0.0
  0
SEQEND
  5
83D7
  8
0
  0
POLYLINE
  5
3252
  8
0
 66
     1
 10
0.0
 20
0.0
 30
0.0
 70
     1
  0
VERTEX
  5
8076
  8
0
 10
2201.67612799706
 20
14342.47281416508
 30
0.0
  0
VERTEX
  5
8077
  8
0
 10
3021.676120844503
 20
14342.47281416508
 30
0.0
  0
VERTEX
  5
8078
  8
0
 10
3021.676120844503
 20
14328.47281559559
 30
0.0
  0
VERTEX
  5
8079
  8
0
 10
2201.67612799706
 20
14328.47281559559
 30
0.0
  0
SEQEND
  5
83D8
  8
0
  0
POLYLINE
  5
3253
  8
0
 66
     1
 10
0.0
 20
0.0
 30
0.0
 70
     1
  0
VERTEX
  5
807A
  8
0
 10
3007.676122275001
 20
14328.47281559559
 30
0.0
  0
VERTEX
  5
807B
  8
0
 10
3021.676120844503
 20
14328.47281559559
 30
0.0
  0
VERTEX
  5
807C
  8
0
 10
3021.676120844503
 20
13830.97282162684
 30
0.0
  0
VERTEX
  5
807D
  8
0
 10
3007.676122275001
 20
13830.97282162684
 30
0.0
  0
SEQEND
  5
83D9
  8
0
  0
POLYLINE
  5
3254
  8
0
 66
     1
 10
0.0
 20
0.0
 30
0.0
 70
     1
  0
VERTEX
  5
807E
  8
0
 10
3021.676120844503
 20
13830.97282162684
 30
0.0
  0
VERTEX
  5
807F
  8
0
 10
2201.67612799706
 20
13830.97282162684
 30
0.0
  0
VERTEX
  5
8080
  8
0
 10
2201.67612799706
 20
13815.9728219621
 30
0.0
  0
VERTEX
  5
8081
  8
0
 10
3021.676120844503
 20
13815.9728219621
 30
0.0
  0
SEQEND
  5
83DA
  8
0
  0
POLYLINE
  5
3255
  8
0
 66
     1
 10
0.0
 20
0.0
 30
0.0
 70
     1
  0
VERTEX
  5
8082
  8
0
 10
2201.67612799706
 20
13830.97282162683
 30
0.0
  0
VERTEX
  5
8083
  8
0
 10
2215.676126566541
 20
13830.97282162683
 30
0.0
  0
VERTEX
  5
8084
  8
0
 10
2215.676126566541
 20
14328.47281559559
 30
0.0
  0
VERTEX
  5
8085
  8
0
 10
2201.67612799706
 20
14328.47281559559
 30
0.0
  0
SEQEND
  5
83DB
  8
0
  0
POLYLINE
  5
3256
  8
0
 66
     1
 10
0.0
 20
0.0
 30
0.0
 70
     1
  0
VERTEX
  5
8086
  8
0
 10
2215.676126566541
 20
14328.47281559559
 30
0.0
  0
VERTEX
  5
8087
  8
0
 10
3007.676122275001
 20
14328.47281559559
 30
0.0
  0
VERTEX
  5
8088
  8
0
 10
3007.676122275001
 20
14282.47281178088
 30
0.0
  0
VERTEX
  5
8089
  8
0
 10
2215.676126566536
 20
14282.47281178088
 30
0.0
  0
SEQEND
  5
83DC
  8
0
  0
POLYLINE
  5
3258
  8
0
 66
     1
 10
0.0
 20
0.0
 30
0.0
 70
     1
  0
VERTEX
  5
808A
  8
0
 10
2215.676126566541
 20
14131.97281178088
 30
0.0
  0
VERTEX
  5
808B
  8
0
 10
3007.676122275001
 20
14131.97281178088
 30
0.0
  0
VERTEX
  5
808C
  8
0
 10
3007.676122275001
 20
14282.47281178088
 30
0.0
  0
VERTEX
  5
808D
  8
0
 10
2215.676126566541
 20
14282.47281178088
 30
0.0
  0
SEQEND
  5
83DD
  8
0
  0
POLYLINE
  5
3262
  8
0
 66
     1
 10
0.0
 20
0.0
 30
0.0
 70
     1
  0
VERTEX
  5
808E
  8
0
 10
2231.676125493664
 20
13815.9728219621
 30
0.0
  0
VERTEX
  5
808F
  8
0
 10
2261.676125493651
 20
13815.9728219621
 30
0.0
  0
VERTEX
  5
8090
  8
0
 10
2261.676125493651
 20
13795.9728219621
 30
0.0
  0
VERTEX
  5
8091
  8
0
 10
2231.676125493664
 20
13795.9728219621
 30
0.0
  0
SEQEND
  5
83DE
  8
0
  0
POLYLINE
  5
3263
  8
0
 66
     1
 10
0.0
 20
0.0
 30
0.0
 70
     1
  0
VERTEX
  5
8092
  8
0
 10
2991.676123347899
 20
13815.9728219621
 30
0.0
  0
VERTEX
  5
8093
  8
0
 10
2961.6761233479
 20
13815.9728219621
 30
0.0
  0
VERTEX
  5
8094
  8
0
 10
2961.6761233479
 20
13795.9728219621
 30
0.0
  0
VERTEX
  5
8095
  8
0
 10
2991.676123347899
 20
13795.9728219621
 30
0.0
  0
SEQEND
  5
83DF
  8
0
  0
POLYLINE
  5
3264
  8
0
 66
     1
 10
0.0
 20
0.0
 30
0.0
 70
     1
  0
VERTEX
  5
8096
  8
0
 10
1601.999997745987
 20
13815.9728219621
 30
0.0
  0
VERTEX
  5
8097
  8
0
 10
1571.999997745998
 20
13815.9728219621
 30
0.0
  0
VERTEX
  5
8098
  8
0
 10
1571.999997745998
 20
13795.9728219621
 30
0.0
  0
VERTEX
  5
8099
  8
0
 10
1601.999997745987
 20
13795.9728219621
 30
0.0
  0
SEQEND
  5
83E0
  8
0
  0
POLYLINE
  5
3265
  8
0
 66
     1
 10
0.0
 20
0.0
 30
0.0
 70
     1
  0
VERTEX
  5
809A
  8
0
 10
841.9999998917583
 20
13815.9728219621
 30
0.0
  0
VERTEX
  5
809B
  8
0
 10
871.9999998917584
 20
13815.9728219621
 30
0.0
  0
VERTEX
  5
809C
  8
0
 10
871.9999998917584
 20
13795.9728219621
 30
0.0
  0
VERTEX
  5
809D
  8
0
 10
841.9999998917583
 20
13795.9728219621
 30
0.0
  0
SEQEND
  5
83E1
  8
0
  0
POLYLINE
  5
3266
  8
0
 66
     1
 10
0.0
 20
0.0
 30
0.0
 70
     1
  0
VERTEX
  5
809E
  8
0
 10
9747.449574772243
 20
14328.47281559559
 30
0.0
  0
VERTEX
  5
809F
  8
0
 10
10197.44956761966
 20
14328.47281559559
 30
0.0
  0
VERTEX
  5
80A0
  8
0
 10
10197.44956761966
 20
13830.97282162684
 30
0.0
  0
VERTEX
  5
80A1
  8
0
 10
9747.449574772243
 20
13830.97282162684
 30
0.0
  0
SEQEND
  5
83E2
  8
0
  0
POLYLINE
  5
3267
  8
0
 66
     1
 10
0.0
 20
0.0
 30
0.0
 70
     1
  0
VERTEX
  5
80A2
  8
0
 10
10197.44956761966
 20
13830.97282162684
 30
0.0
  0
VERTEX
  5
80A3
  8
0
 10
9747.449574772243
 20
13830.97282162684
 30
0.0
  0
VERTEX
  5
80A4
  8
0
 10
9747.449574772243
 20
13815.97282196211
 30
0.0
  0
VERTEX
  5
80A5
  8
0
 10
10197.44956761966
 20
13815.97282196211
 30
0.0
  0
SEQEND
  5
83E3
  8
0
  0
POLYLINE
  5
3268
  8
0
 66
     1
 10
0.0
 20
0.0
 30
0.0
 70
     1
  0
VERTEX
  5
80A6
  8
0
 10
9747.449574772243
 20
14342.47281416508
 30
0.0
  0
VERTEX
  5
80A7
  8
0
 10
10197.44956761966
 20
14342.47281416508
 30
0.0
  0
VERTEX
  5
80A8
  8
0
 10
10197.44956761966
 20
14328.47281559559
 30
0.0
  0
VERTEX
  5
80A9
  8
0
 10
9747.449574772243
 20
14328.47281559559
 30
0.0
  0
SEQEND
  5
83E4
  8
0
  0
POLYLINE
  5
3269
  8
0
 66
     1
 10
0.0
 20
0.0
 30
0.0
 70
     1
  0
VERTEX
  5
80AA
  8
0
 10
10167.44957012307
 20
13815.97282196211
 30
0.0
  0
VERTEX
  5
80AB
  8
0
 10
10137.44957012308
 20
13815.97282196211
 30
0.0
  0
VERTEX
  5
80AC
  8
0
 10
10137.44957012308
 20
13795.97282196211
 30
0.0
  0
VERTEX
  5
80AD
  8
0
 10
10167.44957012307
 20
13795.97282196211
 30
0.0
  0
SEQEND
  5
83E5
  8
0
  0
POLYLINE
  5
326A
  8
0
 66
     1
 10
0.0
 20
0.0
 30
0.0
 70
     1
  0
VERTEX
  5
80AE
  8
0
 10
9777.449572268832
 20
13815.97282196211
 30
0.0
  0
VERTEX
  5
80AF
  8
0
 10
9807.449572268832
 20
13815.97282196211
 30
0.0
  0
VERTEX
  5
80B0
  8
0
 10
9807.449572268832
 20
13795.97282196211
 30
0.0
  0
VERTEX
  5
80B1
  8
0
 10
9777.449572268832
 20
13795.97282196211
 30
0.0
  0
SEQEND
  5
83E6
  8
0
  0
POLYLINE
  5
326B
  8
0
 66
     1
 10
0.0
 20
0.0
 30
0.0
 70
     1
  0
VERTEX
  5
80B2
  8
0
 10
1617.999996673097
 20
11831.97281287613
 30
0.0
  0
VERTEX
  5
80B3
  8
0
 10
826.0000009646384
 20
11831.97281287613
 30
0.0
  0
VERTEX
  5
80B4
  8
0
 10
826.0000009646384
 20
11982.47281287613
 30
0.0
  0
VERTEX
  5
80B5
  8
0
 10
1617.999996673097
 20
11982.47281287613
 30
0.0
  0
SEQEND
  5
83E7
  8
0
  0
POLYLINE
  5
326C
  8
0
 66
     1
 10
0.0
 20
0.0
 30
0.0
 70
     1
  0
VERTEX
  5
80B6
  8
0
 10
1617.999996673097
 20
11982.47281287613
 30
0.0
  0
VERTEX
  5
80B7
  8
0
 10
826.0000009646384
 20
11982.47281287613
 30
0.0
  0
VERTEX
  5
80B8
  8
0
 10
826.0000009646384
 20
12132.97281287613
 30
0.0
  0
VERTEX
  5
80B9
  8
0
 10
1617.999996673097
 20
12132.97281287613
 30
0.0
  0
SEQEND
  5
83E8
  8
0
  0
POLYLINE
  5
326D
  8
0
 66
     1
 10
0.0
 20
0.0
 30
0.0
 70
     1
  0
VERTEX
  5
80BA
  8
0
 10
1617.999996673097
 20
12283.47281287613
 30
0.0
  0
VERTEX
  5
80BB
  8
0
 10
826.0000009646384
 20
12283.47281287613
 30
0.0
  0
VERTEX
  5
80BC
  8
0
 10
826.0000009646384
 20
12433.97281287612
 30
0.0
  0
VERTEX
  5
80BD
  8
0
 10
1617.999996673097
 20
12433.97281287612
 30
0.0
  0
SEQEND
  5
83E9
  8
0
  0
POLYLINE
  5
326E
  8
0
 66
     1
 10
0.0
 20
0.0
 30
0.0
 70
     1
  0
VERTEX
  5
80BE
  8
0
 10
1617.999996673097
 20
12132.97281287613
 30
0.0
  0
VERTEX
  5
80BF
  8
0
 10
826.0000009646384
 20
12132.97281287613
 30
0.0
  0
VERTEX
  5
80C0
  8
0
 10
826.0000009646384
 20
12283.47281287613
 30
0.0
  0
VERTEX
  5
80C1
  8
0
 10
1617.999996673097
 20
12283.47281287613
 30
0.0
  0
SEQEND
  5
83EA
  8
0
  0
POLYLINE
  5
326F
  8
0
 66
     1
 10
0.0
 20
0.0
 30
0.0
 70
     1
  0
VERTEX
  5
80C2
  8
0
 10
1617.999996673097
 20
12433.97281287612
 30
0.0
  0
VERTEX
  5
80C3
  8
0
 10
826.0000009646384
 20
12433.97281287612
 30
0.0
  0
VERTEX
  5
80C4
  8
0
 10
826.0000009646384
 20
12584.47281287612
 30
0.0
  0
VERTEX
  5
80C5
  8
0
 10
1617.999996673097
 20
12584.47281287612
 30
0.0
  0
SEQEND
  5
83EB
  8
0
  0
POLYLINE
  5
3270
  8
0
 66
     1
 10
0.0
 20
0.0
 30
0.0
 70
     1
  0
VERTEX
  5
80C6
  8
0
 10
1617.999996673097
 20
12584.47281287612
 30
0.0
  0
VERTEX
  5
80C7
  8
0
 10
826.0000009646384
 20
12584.47281287612
 30
0.0
  0
VERTEX
  5
80C8
  8
0
 10
826.0000009646384
 20
12734.97281287613
 30
0.0
  0
VERTEX
  5
80C9
  8
0
 10
1617.999996673097
 20
12734.97281287613
 30
0.0
  0
SEQEND
  5
83EC
  8
0
  0
POLYLINE
  5
3272
  8
0
 66
     1
 10
0.0
 20
0.0
 30
0.0
 70
     1
  0
VERTEX
  5
80CA
  8
0
 10
1617.999996673097
 20
12780.97281669082
 30
0.0
  0
VERTEX
  5
80CB
  8
0
 10
826.0000009646384
 20
12780.97281669082
 30
0.0
  0
VERTEX
  5
80CC
  8
0
 10
826.0000009646384
 20
12734.97281287613
 30
0.0
  0
VERTEX
  5
80CD
  8
0
 10
1617.999996673097
 20
12734.97281287613
 30
0.0
  0
SEQEND
  5
83ED
  8
0
  0
POLYLINE
  5
3273
  8
0
 66
     1
 10
0.0
 20
0.0
 30
0.0
 70
     1
  0
VERTEX
  5
80CE
  8
0
 10
1631.999995242589
 20
11831.97282272208
 30
0.0
  0
VERTEX
  5
80CF
  8
0
 10
1617.999996673097
 20
11831.97282272208
 30
0.0
  0
VERTEX
  5
80D0
  8
0
 10
1617.999996673097
 20
12780.97281669082
 30
0.0
  0
VERTEX
  5
80D1
  8
0
 10
1631.999995242589
 20
12780.97281669082
 30
0.0
  0
SEQEND
  5
83EE
  8
0
  0
POLYLINE
  5
3274
  8
0
 66
     1
 10
0.0
 20
0.0
 30
0.0
 70
     1
  0
VERTEX
  5
80D2
  8
0
 10
812.0000023951284
 20
11831.97282272208
 30
0.0
  0
VERTEX
  5
80D3
  8
0
 10
1631.999995242589
 20
11831.97282272208
 30
0.0
  0
VERTEX
  5
80D4
  8
0
 10
1631.999995242589
 20
11816.97282305736
 30
0.0
  0
VERTEX
  5
80D5
  8
0
 10
812.0000023951284
 20
11816.97282305736
 30
0.0
  0
SEQEND
  5
83EF
  8
0
  0
POLYLINE
  5
3275
  8
0
 66
     1
 10
0.0
 20
0.0
 30
0.0
 70
     1
  0
VERTEX
  5
80D6
  8
0
 10
826.0000009646384
 20
12780.97281669082
 30
0.0
  0
VERTEX
  5
80D7
  8
0
 10
812.0000023951284
 20
12780.97281669082
 30
0.0
  0
VERTEX
  5
80D8
  8
0
 10
812.0000023951284
 20
11831.97282272208
 30
0.0
  0
VERTEX
  5
80D9
  8
0
 10
826.0000009646384
 20
11831.97282272208
 30
0.0
  0
SEQEND
  5
83F0
  8
0
  0
POLYLINE
  5
3276
  8
0
 66
     1
 10
0.0
 20
0.0
 30
0.0
 70
     1
  0
VERTEX
  5
80DA
  8
0
 10
1631.999995242589
 20
12794.97281526032
 30
0.0
  0
VERTEX
  5
80DB
  8
0
 10
812.0000023951284
 20
12794.97281526032
 30
0.0
  0
VERTEX
  5
80DC
  8
0
 10
812.0000023951284
 20
12780.97281669082
 30
0.0
  0
VERTEX
  5
80DD
  8
0
 10
1631.999995242589
 20
12780.97281669082
 30
0.0
  0
SEQEND
  5
83F1
  8
0
  0
POLYLINE
  5
3281
  8
0
 66
     1
 10
0.0
 20
0.0
 30
0.0
 70
     1
  0
VERTEX
  5
80DE
  8
0
 10
4397.352247876926
 20
12133.03531287613
 30
0.0
  0
VERTEX
  5
80DF
  8
0
 10
3605.352252168483
 20
12133.03531287613
 30
0.0
  0
VERTEX
  5
80E0
  8
0
 10
3605.352252168483
 20
12434.03530303018
 30
0.0
  0
VERTEX
  5
80E1
  8
0
 10
4397.352247876926
 20
12434.03530303018
 30
0.0
  0
SEQEND
  5
83F2
  8
0
  0
POLYLINE
  5
3282
  8
0
 66
     1
 10
0.0
 20
0.0
 30
0.0
 70
     1
  0
VERTEX
  5
80E2
  8
0
 10
4397.352247876926
 20
11832.03532272208
 30
0.0
  0
VERTEX
  5
80E3
  8
0
 10
3605.352252168483
 20
11832.03532272208
 30
0.0
  0
VERTEX
  5
80E4
  8
0
 10
3605.352252168483
 20
12133.03531287613
 30
0.0
  0
VERTEX
  5
80E5
  8
0
 10
4397.352247876926
 20
12133.03531287613
 30
0.0
  0
SEQEND
  5
83F3
  8
0
  0
POLYLINE
  5
3284
  8
0
 66
     1
 10
0.0
 20
0.0
 30
0.0
 70
     1
  0
VERTEX
  5
80E6
  8
0
 10
4397.352247876926
 20
12781.03531669083
 30
0.0
  0
VERTEX
  5
80E7
  8
0
 10
3605.352252168469
 20
12781.03531669083
 30
0.0
  0
VERTEX
  5
80E8
  8
0
 10
3605.352252168483
 20
12735.03531287613
 30
0.0
  0
VERTEX
  5
80E9
  8
0
 10
4397.352247876948
 20
12735.03531287613
 30
0.0
  0
SEQEND
  5
83F4
  8
0
  0
POLYLINE
  5
3285
  8
0
 66
     1
 10
0.0
 20
0.0
 30
0.0
 70
     1
  0
VERTEX
  5
80EA
  8
0
 10
4411.352246446408
 20
11832.03532272208
 30
0.0
  0
VERTEX
  5
80EB
  8
0
 10
4397.352247876926
 20
11832.03532272208
 30
0.0
  0
VERTEX
  5
80EC
  8
0
 10
4397.352247876926
 20
12781.03531669083
 30
0.0
  0
VERTEX
  5
80ED
  8
0
 10
4411.352246446408
 20
12781.03531669083
 30
0.0
  0
SEQEND
  5
83F5
  8
0
  0
POLYLINE
  5
3286
  8
0
 66
     1
 10
0.0
 20
0.0
 30
0.0
 70
     1
  0
VERTEX
  5
80EE
  8
0
 10
3591.35225359898
 20
11832.03532272208
 30
0.0
  0
VERTEX
  5
80EF
  8
0
 10
4411.352246446408
 20
11832.03532272208
 30
0.0
  0
VERTEX
  5
80F0
  8
0
 10
4411.352246446408
 20
11817.03532305736
 30
0.0
  0
VERTEX
  5
80F1
  8
0
 10
3591.35225359898
 20
11817.03532305736
 30
0.0
  0
SEQEND
  5
83F6
  8
0
  0
POLYLINE
  5
3287
  8
0
 66
     1
 10
0.0
 20
0.0
 30
0.0
 70
     1
  0
VERTEX
  5
80F2
  8
0
 10
3605.352252168469
 20
12781.03531669083
 30
0.0
  0
VERTEX
  5
80F3
  8
0
 10
3591.35225359898
 20
12781.03531669083
 30
0.0
  0
VERTEX
  5
80F4
  8
0
 10
3591.35225359898
 20
11832.03532272208
 30
0.0
  0
VERTEX
  5
80F5
  8
0
 10
3605.352252168469
 20
11832.03532272208
 30
0.0
  0
SEQEND
  5
83F7
  8
0
  0
POLYLINE
  5
3288
  8
0
 66
     1
 10
0.0
 20
0.0
 30
0.0
 70
     1
  0
VERTEX
  5
80F6
  8
0
 10
4411.352246446408
 20
12795.03531526032
 30
0.0
  0
VERTEX
  5
80F7
  8
0
 10
3591.35225359898
 20
12795.03531526032
 30
0.0
  0
VERTEX
  5
80F8
  8
0
 10
3591.35225359898
 20
12781.03531669083
 30
0.0
  0
VERTEX
  5
80F9
  8
0
 10
4411.352246446408
 20
12781.03531669083
 30
0.0
  0
SEQEND
  5
83F8
  8
0
  0
POLYLINE
  5
3289
  8
0
 66
     1
 10
0.0
 20
0.0
 30
0.0
 70
     1
  0
VERTEX
  5
80FA
  8
0
 10
4397.352247876926
 20
12434.03530303018
 30
0.0
  0
VERTEX
  5
80FB
  8
0
 10
3605.352252168483
 20
12434.03530303018
 30
0.0
  0
VERTEX
  5
80FC
  8
0
 10
3605.352252168483
 20
12735.03529318423
 30
0.0
  0
VERTEX
  5
80FD
  8
0
 10
4397.352247876926
 20
12735.03529318423
 30
0.0
  0
SEQEND
  5
83F9
  8
0
  0
POLYLINE
  5
3291
  8
0
 66
     1
 10
0.0
 20
0.0
 30
0.0
 70
     1
  0
VERTEX
  5
80FE
  8
0
 10
3007.676122275029
 20
11831.97282272208
 30
0.0
  0
VERTEX
  5
80FF
  8
0
 10
2215.676126566556
 20
11831.97282272208
 30
0.0
  0
VERTEX
  5
8100
  8
0
 10
2215.676126566556
 20
12132.97281287613
 30
0.0
  0
VERTEX
  5
8101
  8
0
 10
3007.676122275029
 20
12132.97281287613
 30
0.0
  0
SEQEND
  5
83FA
  8
0
  0
POLYLINE
  5
3293
  8
0
 66
     1
 10
0.0
 20
0.0
 30
0.0
 70
     1
  0
VERTEX
  5
8102
  8
0
 10
3007.676122275029
 20
12780.97281669082
 30
0.0
  0
VERTEX
  5
8103
  8
0
 10
2215.676126566556
 20
12780.97281669082
 30
0.0
  0
VERTEX
  5
8104
  8
0
 10
2215.676126566556
 20
12734.97281287612
 30
0.0
  0
VERTEX
  5
8105
  8
0
 10
3007.676122275029
 20
12734.97281287612
 30
0.0
  0
SEQEND
  5
83FB
  8
0
  0
POLYLINE
  5
3294
  8
0
 66
     1
 10
0.0
 20
0.0
 30
0.0
 70
     1
  0
VERTEX
  5
8106
  8
0
 10
3021.67612084451
 20
11831.97282272208
 30
0.0
  0
VERTEX
  5
8107
  8
0
 10
3007.676122275029
 20
11831.97282272208
 30
0.0
  0
VERTEX
  5
8108
  8
0
 10
3007.676122275029
 20
12780.97281669082
 30
0.0
  0
VERTEX
  5
8109
  8
0
 10
3021.67612084451
 20
12780.97281669082
 30
0.0
  0
SEQEND
  5
83FC
  8
0
  0
POLYLINE
  5
3295
  8
0
 66
     1
 10
0.0
 20
0.0
 30
0.0
 70
     1
  0
VERTEX
  5
810A
  8
0
 10
2201.676127997059
 20
11831.97282272208
 30
0.0
  0
VERTEX
  5
810B
  8
0
 10
3021.67612084451
 20
11831.97282272208
 30
0.0
  0
VERTEX
  5
810C
  8
0
 10
3021.67612084451
 20
11816.97282305736
 30
0.0
  0
VERTEX
  5
810D
  8
0
 10
2201.676127997059
 20
11816.97282305736
 30
0.0
  0
SEQEND
  5
83FD
  8
0
  0
POLYLINE
  5
3296
  8
0
 66
     1
 10
0.0
 20
0.0
 30
0.0
 70
     1
  0
VERTEX
  5
810E
  8
0
 10
2215.676126566556
 20
12780.97281669082
 30
0.0
  0
VERTEX
  5
810F
  8
0
 10
2201.676127997059
 20
12780.97281669082
 30
0.0
  0
VERTEX
  5
8110
  8
0
 10
2201.676127997059
 20
11831.97282272208
 30
0.0
  0
VERTEX
  5
8111
  8
0
 10
2215.676126566556
 20
11831.97282272208
 30
0.0
  0
SEQEND
  5
83FE
  8
0
  0
POLYLINE
  5
3297
  8
0
 66
     1
 10
0.0
 20
0.0
 30
0.0
 70
     1
  0
VERTEX
  5
8112
  8
0
 10
3021.67612084451
 20
12794.97281526032
 30
0.0
  0
VERTEX
  5
8113
  8
0
 10
2201.676127997059
 20
12794.97281526032
 30
0.0
  0
VERTEX
  5
8114
  8
0
 10
2201.676127997059
 20
12780.97281669082
 30
0.0
  0
VERTEX
  5
8115
  8
0
 10
3021.67612084451
 20
12780.97281669082
 30
0.0
  0
SEQEND
  5
83FF
  8
0
  0
POLYLINE
  5
3298
  8
0
 66
     1
 10
0.0
 20
0.0
 30
0.0
 70
     1
  0
VERTEX
  5
8116
  8
0
 10
3007.676122275021
 20
12584.47281287612
 30
0.0
  0
VERTEX
  5
8117
  8
0
 10
2215.676126566556
 20
12584.47281287612
 30
0.0
  0
VERTEX
  5
8118
  8
0
 10
2215.676126566556
 20
12734.97281287613
 30
0.0
  0
VERTEX
  5
8119
  8
0
 10
3007.676122275021
 20
12734.97281287613
 30
0.0
  0
SEQEND
  5
8400
  8
0
  0
POLYLINE
  5
3299
  8
0
 66
     1
 10
0.0
 20
0.0
 30
0.0
 70
     1
  0
VERTEX
  5
811A
  8
0
 10
3007.676122275021
 20
12433.97281287612
 30
0.0
  0
VERTEX
  5
811B
  8
0
 10
2215.676126566556
 20
12433.97281287612
 30
0.0
  0
VERTEX
  5
811C
  8
0
 10
2215.676126566556
 20
12584.47281287612
 30
0.0
  0
VERTEX
  5
811D
  8
0
 10
3007.676122275021
 20
12584.47281287612
 30
0.0
  0
SEQEND
  5
8401
  8
0
  0
POLYLINE
  5
329A
  8
0
 66
     1
 10
0.0
 20
0.0
 30
0.0
 70
     1
  0
VERTEX
  5
811E
  8
0
 10
3007.676122275021
 20
12132.97281287613
 30
0.0
  0
VERTEX
  5
811F
  8
0
 10
2215.676126566556
 20
12132.97281287613
 30
0.0
  0
VERTEX
  5
8120
  8
0
 10
2215.676126566556
 20
12283.47281287613
 30
0.0
  0
VERTEX
  5
8121
  8
0
 10
3007.676122275021
 20
12283.47281287613
 30
0.0
  0
SEQEND
  5
8402
  8
0
  0
POLYLINE
  5
329B
  8
0
 66
     1
 10
0.0
 20
0.0
 30
0.0
 70
     1
  0
VERTEX
  5
8122
  8
0
 10
3007.676122275021
 20
12283.47281287613
 30
0.0
  0
VERTEX
  5
8123
  8
0
 10
2215.676126566556
 20
12283.47281287613
 30
0.0
  0
VERTEX
  5
8124
  8
0
 10
2215.676126566556
 20
12433.97281287612
 30
0.0
  0
VERTEX
  5
8125
  8
0
 10
3007.676122275021
 20
12433.97281287612
 30
0.0
  0
SEQEND
  5
8403
  8
0
  0
POLYLINE
  5
329C
  8
0
 66
     1
 10
0.0
 20
0.0
 30
0.0
 70
     1
  0
VERTEX
  5
8126
  8
0
 10
841.9999998917292
 20
11816.97282305736
 30
0.0
  0
VERTEX
  5
8127
  8
0
 10
871.9999998917293
 20
11816.97282305736
 30
0.0
  0
VERTEX
  5
8128
  8
0
 10
871.9999998917293
 20
11796.97282305736
 30
0.0
  0
VERTEX
  5
8129
  8
0
 10
841.9999998917292
 20
11796.97282305736
 30
0.0
  0
SEQEND
  5
8404
  8
0
  0
POLYLINE
  5
329D
  8
0
 66
     1
 10
0.0
 20
0.0
 30
0.0
 70
     1
  0
VERTEX
  5
812A
  8
0
 10
1601.999997745958
 20
11816.97282305736
 30
0.0
  0
VERTEX
  5
812B
  8
0
 10
1571.999997745966
 20
11816.97282305736
 30
0.0
  0
VERTEX
  5
812C
  8
0
 10
1571.999997745966
 20
11796.97282305736
 30
0.0
  0
VERTEX
  5
812D
  8
0
 10
1601.999997745958
 20
11796.97282305736
 30
0.0
  0
SEQEND
  5
8405
  8
0
  0
POLYLINE
  5
329E
  8
0
 66
     1
 10
0.0
 20
0.0
 30
0.0
 70
     1
  0
VERTEX
  5
812E
  8
0
 10
2991.676123347899
 20
11816.97282305736
 30
0.0
  0
VERTEX
  5
812F
  8
0
 10
2961.676123347904
 20
11816.97282305736
 30
0.0
  0
VERTEX
  5
8130
  8
0
 10
2961.676123347904
 20
11796.97282305736
 30
0.0
  0
VERTEX
  5
8131
  8
0
 10
2991.676123347899
 20
11796.97282305736
 30
0.0
  0
SEQEND
  5
8406
  8
0
  0
POLYLINE
  5
329F
  8
0
 66
     1
 10
0.0
 20
0.0
 30
0.0
 70
     1
  0
VERTEX
  5
8132
  8
0
 10
2231.676125493664
 20
11816.97282305736
 30
0.0
  0
VERTEX
  5
8133
  8
0
 10
2261.676125493664
 20
11816.97282305736
 30
0.0
  0
VERTEX
  5
8134
  8
0
 10
2261.676125493664
 20
11796.97282305736
 30
0.0
  0
VERTEX
  5
8135
  8
0
 10
2231.676125493664
 20
11796.97282305736
 30
0.0
  0
SEQEND
  5
8407
  8
0
  0
POLYLINE
  5
32A2
  8
0
 66
     1
 10
0.0
 20
0.0
 30
0.0
 70
     1
  0
VERTEX
  5
8136
  8
0
 10
3621.352251095585
 20
11817.03532305736
 30
0.0
  0
VERTEX
  5
8137
  8
0
 10
3651.352251095584
 20
11817.03532305736
 30
0.0
  0
VERTEX
  5
8138
  8
0
 10
3651.352251095584
 20
11797.03532305736
 30
0.0
  0
VERTEX
  5
8139
  8
0
 10
3621.352251095585
 20
11797.03532305736
 30
0.0
  0
SEQEND
  5
8408
  8
0
  0
POLYLINE
  5
32A3
  8
0
 66
     1
 10
0.0
 20
0.0
 30
0.0
 70
     1
  0
VERTEX
  5
813A
  8
0
 10
4381.352248949816
 20
11817.03532305736
 30
0.0
  0
VERTEX
  5
813B
  8
0
 10
4351.352248949816
 20
11817.03532305736
 30
0.0
  0
VERTEX
  5
813C
  8
0
 10
4351.352248949816
 20
11797.03532305736
 30
0.0
  0
VERTEX
  5
813D
  8
0
 10
4381.352248949816
 20
11797.03532305736
 30
0.0
  0
SEQEND
  5
8409
  8
0
  0
POLYLINE
  5
32A6
  8
0
 66
     1
 10
0.0
 20
0.0
 30
0.0
 70
     1
  0
VERTEX
  5
813E
  8
0
 10
9777.449572268828
 20
11816.97282305736
 30
0.0
  0
VERTEX
  5
813F
  8
0
 10
9807.449572268843
 20
11816.97282305736
 30
0.0
  0
VERTEX
  5
8140
  8
0
 10
9807.449572268843
 20
11796.97282305736
 30
0.0
  0
VERTEX
  5
8141
  8
0
 10
9777.449572268828
 20
11796.97282305736
 30
0.0
  0
SEQEND
  5
840A
  8
0
  0
POLYLINE
  5
32A7
  8
0
 66
     1
 10
0.0
 20
0.0
 30
0.0
 70
     1
  0
VERTEX
  5
8142
  8
0
 10
10167.44957012308
 20
11816.97282305736
 30
0.0
  0
VERTEX
  5
8143
  8
0
 10
10137.44957012308
 20
11816.97282305736
 30
0.0
  0
VERTEX
  5
8144
  8
0
 10
10137.44957012308
 20
11796.97282305736
 30
0.0
  0
VERTEX
  5
8145
  8
0
 10
10167.44957012308
 20
11796.97282305736
 30
0.0
  0
SEQEND
  5
840B
  8
0
  0
POLYLINE
  5
32A8
  8
0
 66
     1
 10
0.0
 20
0.0
 30
0.0
 70
     1
  0
VERTEX
  5
8146
  8
0
 10
9747.44957477224
 20
12794.97281526032
 30
0.0
  0
VERTEX
  5
8147
  8
0
 10
10197.44956761966
 20
12794.97281526032
 30
0.0
  0
VERTEX
  5
8148
  8
0
 10
10197.44956761966
 20
12780.97281669082
 30
0.0
  0
VERTEX
  5
8149
  8
0
 10
9747.44957477224
 20
12780.97281669082
 30
0.0
  0
SEQEND
  5
840C
  8
0
  0
POLYLINE
  5
32A9
  8
0
 66
     1
 10
0.0
 20
0.0
 30
0.0
 70
     1
  0
VERTEX
  5
814A
  8
0
 10
10197.44956761966
 20
11831.97282272208
 30
0.0
  0
VERTEX
  5
814B
  8
0
 10
9747.44957477224
 20
11831.97282272208
 30
0.0
  0
VERTEX
  5
814C
  8
0
 10
9747.44957477224
 20
11816.97282305736
 30
0.0
  0
VERTEX
  5
814D
  8
0
 10
10197.44956761966
 20
11816.97282305736
 30
0.0
  0
SEQEND
  5
840D
  8
0
  0
POLYLINE
  5
32AA
  8
0
 66
     1
 10
0.0
 20
0.0
 30
0.0
 70
     1
  0
VERTEX
  5
814E
  8
0
 10
9747.44957477224
 20
12780.97281669082
 30
0.0
  0
VERTEX
  5
814F
  8
0
 10
10197.44956761966
 20
12780.97281669082
 30
0.0
  0
VERTEX
  5
8150
  8
0
 10
10197.44956761966
 20
11831.97282272208
 30
0.0
  0
VERTEX
  5
8151
  8
0
 10
9747.44957477224
 20
11831.97282272208
 30
0.0
  0
SEQEND
  5
840E
  8
0
  0
POLYLINE
  5
32AB
  8
0
 66
     1
 10
0.0
 20
0.0
 30
0.0
 70
     1
  0
VERTEX
  5
8152
  8
0
 10
10987.12570037417
 20
12780.97281669082
 30
0.0
  0
VERTEX
  5
8153
  8
0
 10
11587.12569322158
 20
12780.97281669082
 30
0.0
  0
VERTEX
  5
8154
  8
0
 10
11587.12569322158
 20
11831.97282272208
 30
0.0
  0
VERTEX
  5
8155
  8
0
 10
10987.12570037417
 20
11831.97282272208
 30
0.0
  0
SEQEND
  5
840F
  8
0
  0
POLYLINE
  5
32AC
  8
0
 66
     1
 10
0.0
 20
0.0
 30
0.0
 70
     1
  0
VERTEX
  5
8156
  8
0
 10
11587.12569322158
 20
11831.97282272208
 30
0.0
  0
VERTEX
  5
8157
  8
0
 10
10987.12570037417
 20
11831.97282272208
 30
0.0
  0
VERTEX
  5
8158
  8
0
 10
10987.12570037417
 20
11816.97282305736
 30
0.0
  0
VERTEX
  5
8159
  8
0
 10
11587.12569322158
 20
11816.97282305736
 30
0.0
  0
SEQEND
  5
8410
  8
0
  0
POLYLINE
  5
32AD
  8
0
 66
     1
 10
0.0
 20
0.0
 30
0.0
 70
     1
  0
VERTEX
  5
815A
  8
0
 10
10987.12570037417
 20
12794.97281526032
 30
0.0
  0
VERTEX
  5
815B
  8
0
 10
11587.12569322158
 20
12794.97281526032
 30
0.0
  0
VERTEX
  5
815C
  8
0
 10
11587.12569322158
 20
12780.97281669082
 30
0.0
  0
VERTEX
  5
815D
  8
0
 10
10987.12570037417
 20
12780.97281669082
 30
0.0
  0
SEQEND
  5
8411
  8
0
  0
POLYLINE
  5
32AE
  8
0
 66
     1
 10
0.0
 20
0.0
 30
0.0
 70
     1
  0
VERTEX
  5
815E
  8
0
 10
11557.12569572501
 20
11816.97282305736
 30
0.0
  0
VERTEX
  5
815F
  8
0
 10
11527.12569572501
 20
11816.97282305736
 30
0.0
  0
VERTEX
  5
8160
  8
0
 10
11527.12569572501
 20
11796.97282305736
 30
0.0
  0
VERTEX
  5
8161
  8
0
 10
11557.12569572501
 20
11796.97282305736
 30
0.0
  0
SEQEND
  5
8412
  8
0
  0
POLYLINE
  5
32AF
  8
0
 66
     1
 10
0.0
 20
0.0
 30
0.0
 70
     1
  0
VERTEX
  5
8162
  8
0
 10
11017.12569787078
 20
11816.97282305736
 30
0.0
  0
VERTEX
  5
8163
  8
0
 10
11047.12569787076
 20
11816.97282305736
 30
0.0
  0
VERTEX
  5
8164
  8
0
 10
11047.12569787076
 20
11796.97282305736
 30
0.0
  0
VERTEX
  5
8165
  8
0
 10
11017.12569787078
 20
11796.97282305736
 30
0.0
  0
SEQEND
  5
8413
  8
0
  0
POLYLINE
  5
32F1
  8
0
 66
     1
 10
0.0
 20
0.0
 30
0.0
 70
     1
  0
VERTEX
  5
8166
  8
0
 10
9777.449572268826
 20
6965.725529812177
 30
0.0
  0
VERTEX
  5
8167
  8
0
 10
9807.44957226884
 20
6965.725529812177
 30
0.0
  0
VERTEX
  5
8168
  8
0
 10
9807.44957226884
 20
6945.725529812174
 30
0.0
  0
VERTEX
  5
8169
  8
0
 10
9777.449572268826
 20
6945.725529812174
 30
0.0
  0
SEQEND
  5
8414
  8
0
  0
POLYLINE
  5
32F2
  8
0
 66
     1
 10
0.0
 20
0.0
 30
0.0
 70
     1
  0
VERTEX
  5
816A
  8
0
 10
10167.44957012307
 20
6965.725529812177
 30
0.0
  0
VERTEX
  5
816B
  8
0
 10
10137.44957012307
 20
6965.725529812177
 30
0.0
  0
VERTEX
  5
816C
  8
0
 10
10137.44957012307
 20
6945.725529812174
 30
0.0
  0
VERTEX
  5
816D
  8
0
 10
10167.44957012307
 20
6945.725529812174
 30
0.0
  0
SEQEND
  5
8415
  8
0
  0
POLYLINE
  5
32F3
  8
0
 66
     1
 10
0.0
 20
0.0
 30
0.0
 70
     1
  0
VERTEX
  5
816E
  8
0
 10
9747.449574772238
 20
7492.225522015142
 30
0.0
  0
VERTEX
  5
816F
  8
0
 10
10197.44956761966
 20
7492.225522015142
 30
0.0
  0
VERTEX
  5
8170
  8
0
 10
10197.44956761966
 20
7478.22552344565
 30
0.0
  0
VERTEX
  5
8171
  8
0
 10
9747.449574772238
 20
7478.22552344565
 30
0.0
  0
SEQEND
  5
8416
  8
0
  0
POLYLINE
  5
32F4
  8
0
 66
     1
 10
0.0
 20
0.0
 30
0.0
 70
     1
  0
VERTEX
  5
8172
  8
0
 10
10197.44956761966
 20
6980.725529476899
 30
0.0
  0
VERTEX
  5
8173
  8
0
 10
9747.449574772238
 20
6980.725529476899
 30
0.0
  0
VERTEX
  5
8174
  8
0
 10
9747.449574772238
 20
6965.725529812177
 30
0.0
  0
VERTEX
  5
8175
  8
0
 10
10197.44956761966
 20
6965.725529812177
 30
0.0
  0
SEQEND
  5
8417
  8
0
  0
POLYLINE
  5
32F5
  8
0
 66
     1
 10
0.0
 20
0.0
 30
0.0
 70
     1
  0
VERTEX
  5
8176
  8
0
 10
9747.449574772238
 20
7478.22552344565
 30
0.0
  0
VERTEX
  5
8177
  8
0
 10
10197.44956761966
 20
7478.22552344565
 30
0.0
  0
VERTEX
  5
8178
  8
0
 10
10197.44956761966
 20
6980.725529476899
 30
0.0
  0
VERTEX
  5
8179
  8
0
 10
9747.449574772238
 20
6980.725529476899
 30
0.0
  0
SEQEND
  5
8418
  8
0
  0
POLYLINE
  5
32F6
  8
0
 66
     1
 10
0.0
 20
0.0
 30
0.0
 70
     1
  0
VERTEX
  5
817A
  8
0
 10
9747.449574772238
 20
9477.225522350414
 30
0.0
  0
VERTEX
  5
817B
  8
0
 10
10197.44956761966
 20
9477.225522350414
 30
0.0
  0
VERTEX
  5
817C
  8
0
 10
10197.44956761966
 20
8979.72552838166
 30
0.0
  0
VERTEX
  5
817D
  8
0
 10
9747.449574772238
 20
8979.72552838166
 30
0.0
  0
SEQEND
  5
8419
  8
0
  0
POLYLINE
  5
32F7
  8
0
 66
     1
 10
0.0
 20
0.0
 30
0.0
 70
     1
  0
VERTEX
  5
817E
  8
0
 10
10197.44956761966
 20
8979.72552838166
 30
0.0
  0
VERTEX
  5
817F
  8
0
 10
9747.449574772238
 20
8979.72552838166
 30
0.0
  0
VERTEX
  5
8180
  8
0
 10
9747.449574772238
 20
8964.72552871693
 30
0.0
  0
VERTEX
  5
8181
  8
0
 10
10197.44956761966
 20
8964.72552871693
 30
0.0
  0
SEQEND
  5
841A
  8
0
  0
POLYLINE
  5
32F8
  8
0
 66
     1
 10
0.0
 20
0.0
 30
0.0
 70
     1
  0
VERTEX
  5
8182
  8
0
 10
9747.449574772238
 20
9491.2255209199
 30
0.0
  0
VERTEX
  5
8183
  8
0
 10
10197.44956761966
 20
9491.2255209199
 30
0.0
  0
VERTEX
  5
8184
  8
0
 10
10197.44956761966
 20
9477.225522350414
 30
0.0
  0
VERTEX
  5
8185
  8
0
 10
9747.449574772238
 20
9477.225522350414
 30
0.0
  0
SEQEND
  5
841B
  8
0
  0
POLYLINE
  5
32F9
  8
0
 66
     1
 10
0.0
 20
0.0
 30
0.0
 70
     1
  0
VERTEX
  5
8186
  8
0
 10
10167.44957012307
 20
8964.72552871693
 30
0.0
  0
VERTEX
  5
8187
  8
0
 10
10137.44957012307
 20
8964.72552871693
 30
0.0
  0
VERTEX
  5
8188
  8
0
 10
10137.44957012307
 20
8944.72552871693
 30
0.0
  0
VERTEX
  5
8189
  8
0
 10
10167.44957012307
 20
8944.72552871693
 30
0.0
  0
SEQEND
  5
841C
  8
0
  0
POLYLINE
  5
32FA
  8
0
 66
     1
 10
0.0
 20
0.0
 30
0.0
 70
     1
  0
VERTEX
  5
818A
  8
0
 10
9777.449572268826
 20
8964.72552871693
 30
0.0
  0
VERTEX
  5
818B
  8
0
 10
9807.44957226884
 20
8964.72552871693
 30
0.0
  0
VERTEX
  5
818C
  8
0
 10
9807.44957226884
 20
8944.72552871693
 30
0.0
  0
VERTEX
  5
818D
  8
0
 10
9777.449572268826
 20
8944.72552871693
 30
0.0
  0
SEQEND
  5
841D
  8
0
  0
POLYLINE
  5
32FB
  8
0
 66
     1
 10
0.0
 20
0.0
 30
0.0
 70
     1
  0
VERTEX
  5
818E
  8
0
 10
1008.99999989174
 20
8964.725528716934
 30
0.0
  0
VERTEX
  5
818F
  8
0
 10
1038.999999891739
 20
8964.725528716934
 30
0.0
  0
VERTEX
  5
8190
  8
0
 10
1038.999999891739
 20
8944.725528716928
 30
0.0
  0
VERTEX
  5
8191
  8
0
 10
1008.99999989174
 20
8944.725528716928
 30
0.0
  0
SEQEND
  5
841E
  8
0
  0
POLYLINE
  5
32FC
  8
0
 66
     1
 10
0.0
 20
0.0
 30
0.0
 70
     1
  0
VERTEX
  5
8192
  8
0
 10
2226.999993454432
 20
8964.725528716934
 30
0.0
  0
VERTEX
  5
8193
  8
0
 10
2196.999993454435
 20
8964.725528716934
 30
0.0
  0
VERTEX
  5
8194
  8
0
 10
2196.999993454435
 20
8944.725528716928
 30
0.0
  0
VERTEX
  5
8195
  8
0
 10
2226.999993454432
 20
8944.725528716928
 30
0.0
  0
SEQEND
  5
841F
  8
0
  0
POLYLINE
  5
32FD
  8
0
 66
     1
 10
0.0
 20
0.0
 30
0.0
 70
     1
  0
VERTEX
  5
8196
  8
0
 10
3190.676121202126
 20
8964.725528716925
 30
0.0
  0
VERTEX
  5
8197
  8
0
 10
3220.676121202123
 20
8964.725528716925
 30
0.0
  0
VERTEX
  5
8198
  8
0
 10
3220.676121202123
 20
8944.725528716917
 30
0.0
  0
VERTEX
  5
8199
  8
0
 10
3190.676121202126
 20
8944.725528716917
 30
0.0
  0
SEQEND
  5
8420
  8
0
  0
POLYLINE
  5
32FE
  8
0
 66
     1
 10
0.0
 20
0.0
 30
0.0
 70
     1
  0
VERTEX
  5
819A
  8
0
 10
5200.676110473256
 20
8964.725528716925
 30
0.0
  0
VERTEX
  5
819B
  8
0
 10
5170.676110473264
 20
8964.725528716925
 30
0.0
  0
VERTEX
  5
819C
  8
0
 10
5170.676110473264
 20
8944.725528716917
 30
0.0
  0
VERTEX
  5
819D
  8
0
 10
5200.676110473256
 20
8944.725528716917
 30
0.0
  0
SEQEND
  5
8421
  8
0
  0
POLYLINE
  5
32FF
  8
0
 66
     1
 10
0.0
 20
0.0
 30
0.0
 70
     1
  0
VERTEX
  5
819E
  8
0
 10
5200.676110473256
 20
6964.725528716932
 30
0.0
  0
VERTEX
  5
819F
  8
0
 10
5170.676110473264
 20
6964.725528716932
 30
0.0
  0
VERTEX
  5
81A0
  8
0
 10
5170.676110473264
 20
6944.725528716934
 30
0.0
  0
VERTEX
  5
81A1
  8
0
 10
5200.676110473256
 20
6944.725528716934
 30
0.0
  0
SEQEND
  5
8422
  8
0
  0
POLYLINE
  5
3300
  8
0
 66
     1
 10
0.0
 20
0.0
 30
0.0
 70
     1
  0
VERTEX
  5
81A2
  8
0
 10
3190.676121202126
 20
6964.725528716932
 30
0.0
  0
VERTEX
  5
81A3
  8
0
 10
3220.676121202123
 20
6964.725528716932
 30
0.0
  0
VERTEX
  5
81A4
  8
0
 10
3220.676121202123
 20
6944.725528716934
 30
0.0
  0
VERTEX
  5
81A5
  8
0
 10
3190.676121202126
 20
6944.725528716934
 30
0.0
  0
SEQEND
  5
8423
  8
0
  0
POLYLINE
  5
3301
  8
0
 66
     1
 10
0.0
 20
0.0
 30
0.0
 70
     1
  0
VERTEX
  5
81A6
  8
0
 10
2226.999993454432
 20
6964.725528716932
 30
0.0
  0
VERTEX
  5
81A7
  8
0
 10
2196.999993454435
 20
6964.725528716932
 30
0.0
  0
VERTEX
  5
81A8
  8
0
 10
2196.999993454435
 20
6944.725528716934
 30
0.0
  0
VERTEX
  5
81A9
  8
0
 10
2226.999993454432
 20
6944.725528716934
 30
0.0
  0
SEQEND
  5
8424
  8
0
  0
POLYLINE
  5
3302
  8
0
 66
     1
 10
0.0
 20
0.0
 30
0.0
 70
     1
  0
VERTEX
  5
81AA
  8
0
 10
1008.99999989174
 20
6964.725528716932
 30
0.0
  0
VERTEX
  5
81AB
  8
0
 10
1038.999999891739
 20
6964.725528716932
 30
0.0
  0
VERTEX
  5
81AC
  8
0
 10
1038.999999891739
 20
6944.725528716934
 30
0.0
  0
VERTEX
  5
81AD
  8
0
 10
1008.99999989174
 20
6944.725528716934
 30
0.0
  0
SEQEND
  5
8425
  8
0
  0
POLYLINE
  5
333C
  8
0
 66
     1
 10
0.0
 20
0.0
 30
0.0
 70
     1
  0
VERTEX
  5
81AE
  8
0
 10
4591.676113691906
 20
6978.725527286423
 30
0.0
  0
VERTEX
  5
81AF
  8
0
 10
5383.676109400371
 20
6978.725527286423
 30
0.0
  0
VERTEX
  5
81B0
  8
0
 10
5383.676109400371
 20
7279.72551744047
 30
0.0
  0
VERTEX
  5
81B1
  8
0
 10
4591.676113691906
 20
7279.72551744047
 30
0.0
  0
SEQEND
  5
8426
  8
0
  0
POLYLINE
  5
333D
  8
0
 66
     1
 10
0.0
 20
0.0
 30
0.0
 70
     1
  0
VERTEX
  5
81B2
  8
0
 10
3007.676122274984
 20
6978.725527286423
 30
0.0
  0
VERTEX
  5
81B3
  8
0
 10
3799.676117983453
 20
6978.725527286423
 30
0.0
  0
VERTEX
  5
81B4
  8
0
 10
3799.676117983453
 20
7279.72551744047
 30
0.0
  0
VERTEX
  5
81B5
  8
0
 10
3007.676122274984
 20
7279.72551744047
 30
0.0
  0
SEQEND
  5
8427
  8
0
  0
POLYLINE
  5
333E
  8
0
 66
     1
 10
0.0
 20
0.0
 30
0.0
 70
     1
  0
VERTEX
  5
81B6
  8
0
 10
4591.676113691906
 20
6978.725527286423
 30
0.0
  0
VERTEX
  5
81B7
  8
0
 10
3799.676117983465
 20
6978.725527286423
 30
0.0
  0
VERTEX
  5
81B8
  8
0
 10
3799.676117983465
 20
7279.72551744047
 30
0.0
  0
VERTEX
  5
81B9
  8
0
 10
4591.676113691906
 20
7279.72551744047
 30
0.0
  0
SEQEND
  5
8428
  8
0
  0
POLYLINE
  5
333F
  8
0
 66
     1
 10
0.0
 20
0.0
 30
0.0
 70
     1
  0
VERTEX
  5
81BA
  8
0
 10
2409.99999238156
 20
6978.725527286423
 30
0.0
  0
VERTEX
  5
81BB
  8
0
 10
1617.999996673089
 20
6978.725527286423
 30
0.0
  0
VERTEX
  5
81BC
  8
0
 10
1617.999996673089
 20
7279.72551744047
 30
0.0
  0
VERTEX
  5
81BD
  8
0
 10
2409.99999238156
 20
7279.72551744047
 30
0.0
  0
SEQEND
  5
8429
  8
0
  0
POLYLINE
  5
3340
  8
0
 66
     1
 10
0.0
 20
0.0
 30
0.0
 70
     1
  0
VERTEX
  5
81BE
  8
0
 10
826.0000009646169
 20
6978.725527286423
 30
0.0
  0
VERTEX
  5
81BF
  8
0
 10
1617.999996673082
 20
6978.725527286423
 30
0.0
  0
VERTEX
  5
81C0
  8
0
 10
1617.999996673082
 20
7279.72551744047
 30
0.0
  0
VERTEX
  5
81C1
  8
0
 10
826.0000009646169
 20
7279.72551744047
 30
0.0
  0
SEQEND
  5
842A
  8
0
  0
POLYLINE
  5
3341
  8
0
 66
     1
 10
0.0
 20
0.0
 30
0.0
 70
     1
  0
VERTEX
  5
81C2
  8
0
 10
826.0000009646169
 20
7279.72551744047
 30
0.0
  0
VERTEX
  5
81C3
  8
0
 10
1617.999996673082
 20
7279.72551744047
 30
0.0
  0
VERTEX
  5
81C4
  8
0
 10
1617.999996673082
 20
7430.225517440473
 30
0.0
  0
VERTEX
  5
81C5
  8
0
 10
826.0000009646169
 20
7430.225517440473
 30
0.0
  0
SEQEND
  5
842B
  8
0
  0
POLYLINE
  5
3342
  8
0
 66
     1
 10
0.0
 20
0.0
 30
0.0
 70
     1
  0
VERTEX
  5
81C6
  8
0
 10
826.0000009646169
 20
7476.22552125517
 30
0.0
  0
VERTEX
  5
81C7
  8
0
 10
2409.99999238156
 20
7476.22552125517
 30
0.0
  0
VERTEX
  5
81C8
  8
0
 10
2409.999992381545
 20
7430.225517440473
 30
0.0
  0
VERTEX
  5
81C9
  8
0
 10
826.0000009646095
 20
7430.225517440473
 30
0.0
  0
SEQEND
  5
842C
  8
0
  0
POLYLINE
  5
3343
  8
0
 66
     1
 10
0.0
 20
0.0
 30
0.0
 70
     1
  0
VERTEX
  5
81CA
  8
0
 10
812.0000023951284
 20
6978.725527286423
 30
0.0
  0
VERTEX
  5
81CB
  8
0
 10
826.0000009646169
 20
6978.725527286423
 30
0.0
  0
VERTEX
  5
81CC
  8
0
 10
826.0000009646169
 20
7476.22552125517
 30
0.0
  0
VERTEX
  5
81CD
  8
0
 10
812.0000023951284
 20
7476.22552125517
 30
0.0
  0
SEQEND
  5
842D
  8
0
  0
POLYLINE
  5
3344
  8
0
 66
     1
 10
0.0
 20
0.0
 30
0.0
 70
     1
  0
VERTEX
  5
81CE
  8
0
 10
812.0000023951284
 20
7490.225519824669
 30
0.0
  0
VERTEX
  5
81CF
  8
0
 10
2423.999990951034
 20
7490.225519824669
 30
0.0
  0
VERTEX
  5
81D0
  8
0
 10
2423.999990951034
 20
7476.22552125517
 30
0.0
  0
VERTEX
  5
81D1
  8
0
 10
812.0000023951284
 20
7476.22552125517
 30
0.0
  0
SEQEND
  5
842E
  8
0
  0
POLYLINE
  5
3345
  8
0
 66
     1
 10
0.0
 20
0.0
 30
0.0
 70
     1
  0
VERTEX
  5
81D2
  8
0
 10
2409.999992381545
 20
7279.72551744047
 30
0.0
  0
VERTEX
  5
81D3
  8
0
 10
1617.999996673082
 20
7279.72551744047
 30
0.0
  0
VERTEX
  5
81D4
  8
0
 10
1617.999996673082
 20
7430.225517440473
 30
0.0
  0
VERTEX
  5
81D5
  8
0
 10
2409.999992381545
 20
7430.225517440473
 30
0.0
  0
SEQEND
  5
842F
  8
0
  0
POLYLINE
  5
3346
  8
0
 66
     1
 10
0.0
 20
0.0
 30
0.0
 70
     1
  0
VERTEX
  5
81D6
  8
0
 10
2423.999990951034
 20
6978.725527286423
 30
0.0
  0
VERTEX
  5
81D7
  8
0
 10
2409.99999238156
 20
6978.725527286423
 30
0.0
  0
VERTEX
  5
81D8
  8
0
 10
2409.99999238156
 20
7476.22552125517
 30
0.0
  0
VERTEX
  5
81D9
  8
0
 10
2423.999990951034
 20
7476.22552125517
 30
0.0
  0
SEQEND
  5
8430
  8
0
  0
POLYLINE
  5
3347
  8
0
 66
     1
 10
0.0
 20
0.0
 30
0.0
 70
     1
  0
VERTEX
  5
81DA
  8
0
 10
812.0000023951284
 20
6964.725528716932
 30
0.0
  0
VERTEX
  5
81DB
  8
0
 10
2423.999990951034
 20
6964.725528716932
 30
0.0
  0
VERTEX
  5
81DC
  8
0
 10
2423.999990951034
 20
6978.725527286423
 30
0.0
  0
VERTEX
  5
81DD
  8
0
 10
812.0000023951284
 20
6978.725527286423
 30
0.0
  0
SEQEND
  5
8431
  8
0
  0
POLYLINE
  5
3348
  8
0
 66
     1
 10
0.0
 20
0.0
 30
0.0
 70
     1
  0
VERTEX
  5
81DE
  8
0
 10
5397.676107969862
 20
6978.725527286423
 30
0.0
  0
VERTEX
  5
81DF
  8
0
 10
5383.676109400371
 20
6978.725527286423
 30
0.0
  0
VERTEX
  5
81E0
  8
0
 10
5383.676109400371
 20
7476.22552125517
 30
0.0
  0
VERTEX
  5
81E1
  8
0
 10
5397.676107969862
 20
7476.22552125517
 30
0.0
  0
SEQEND
  5
8432
  8
0
  0
POLYLINE
  5
3349
  8
0
 66
     1
 10
0.0
 20
0.0
 30
0.0
 70
     1
  0
VERTEX
  5
81E2
  8
0
 10
4591.676113691906
 20
7279.72551744047
 30
0.0
  0
VERTEX
  5
81E3
  8
0
 10
3799.676117983465
 20
7279.72551744047
 30
0.0
  0
VERTEX
  5
81E4
  8
0
 10
3799.676117983465
 20
7430.225517440473
 30
0.0
  0
VERTEX
  5
81E5
  8
0
 10
4591.676113691906
 20
7430.225517440473
 30
0.0
  0
SEQEND
  5
8433
  8
0
  0
POLYLINE
  5
334A
  8
0
 66
     1
 10
0.0
 20
0.0
 30
0.0
 70
     1
  0
VERTEX
  5
81E6
  8
0
 10
2993.67612370553
 20
7490.225519824669
 30
0.0
  0
VERTEX
  5
81E7
  8
0
 10
5397.676107969862
 20
7490.225519824669
 30
0.0
  0
VERTEX
  5
81E8
  8
0
 10
5397.676107969862
 20
7476.22552125517
 30
0.0
  0
VERTEX
  5
81E9
  8
0
 10
2993.67612370553
 20
7476.22552125517
 30
0.0
  0
SEQEND
  5
8434
  8
0
  0
POLYLINE
  5
334B
  8
0
 66
     1
 10
0.0
 20
0.0
 30
0.0
 70
     1
  0
VERTEX
  5
81EA
  8
0
 10
2993.67612370553
 20
6978.725527286423
 30
0.0
  0
VERTEX
  5
81EB
  8
0
 10
3007.676122274999
 20
6978.725527286423
 30
0.0
  0
VERTEX
  5
81EC
  8
0
 10
3007.676122274999
 20
7476.22552125517
 30
0.0
  0
VERTEX
  5
81ED
  8
0
 10
2993.67612370553
 20
7476.22552125517
 30
0.0
  0
SEQEND
  5
8435
  8
0
  0
POLYLINE
  5
334C
  8
0
 66
     1
 10
0.0
 20
0.0
 30
0.0
 70
     1
  0
VERTEX
  5
81EE
  8
0
 10
3007.676122274999
 20
7476.22552125517
 30
0.0
  0
VERTEX
  5
81EF
  8
0
 10
5383.676109400371
 20
7476.22552125517
 30
0.0
  0
VERTEX
  5
81F0
  8
0
 10
5383.676109400371
 20
7430.225517440473
 30
0.0
  0
VERTEX
  5
81F1
  8
0
 10
3007.676122274984
 20
7430.225517440473
 30
0.0
  0
SEQEND
  5
8436
  8
0
  0
POLYLINE
  5
334D
  8
0
 66
     1
 10
0.0
 20
0.0
 30
0.0
 70
     1
  0
VERTEX
  5
81F2
  8
0
 10
3007.676122274999
 20
7279.72551744047
 30
0.0
  0
VERTEX
  5
81F3
  8
0
 10
3799.676117983453
 20
7279.72551744047
 30
0.0
  0
VERTEX
  5
81F4
  8
0
 10
3799.676117983453
 20
7430.225517440473
 30
0.0
  0
VERTEX
  5
81F5
  8
0
 10
3007.676122274999
 20
7430.225517440473
 30
0.0
  0
SEQEND
  5
8437
  8
0
  0
POLYLINE
  5
334E
  8
0
 66
     1
 10
0.0
 20
0.0
 30
0.0
 70
     1
  0
VERTEX
  5
81F6
  8
0
 10
5383.676109400371
 20
7279.72551744047
 30
0.0
  0
VERTEX
  5
81F7
  8
0
 10
4591.676113691906
 20
7279.72551744047
 30
0.0
  0
VERTEX
  5
81F8
  8
0
 10
4591.676113691906
 20
7430.225517440473
 30
0.0
  0
VERTEX
  5
81F9
  8
0
 10
5383.676109400371
 20
7430.225517440473
 30
0.0
  0
SEQEND
  5
8438
  8
0
  0
POLYLINE
  5
334F
  8
0
 66
     1
 10
0.0
 20
0.0
 30
0.0
 70
     1
  0
VERTEX
  5
81FA
  8
0
 10
2993.67612370553
 20
6964.725528716932
 30
0.0
  0
VERTEX
  5
81FB
  8
0
 10
5397.676107969862
 20
6964.725528716932
 30
0.0
  0
VERTEX
  5
81FC
  8
0
 10
5397.676107969862
 20
6978.725527286423
 30
0.0
  0
VERTEX
  5
81FD
  8
0
 10
2993.67612370553
 20
6978.725527286423
 30
0.0
  0
SEQEND
  5
8439
  8
0
  0
POLYLINE
  5
3350
  8
0
 66
     1
 10
0.0
 20
0.0
 30
0.0
 70
     1
  0
VERTEX
  5
81FE
  8
0
 10
2993.67612370553
 20
8964.725528716925
 30
0.0
  0
VERTEX
  5
81FF
  8
0
 10
5397.676107969862
 20
8964.725528716925
 30
0.0
  0
VERTEX
  5
8200
  8
0
 10
5397.676107969862
 20
8978.725527286422
 30
0.0
  0
VERTEX
  5
8201
  8
0
 10
2993.67612370553
 20
8978.725527286422
 30
0.0
  0
SEQEND
  5
843A
  8
0
  0
POLYLINE
  5
3351
  8
0
 66
     1
 10
0.0
 20
0.0
 30
0.0
 70
     1
  0
VERTEX
  5
8202
  8
0
 10
5383.676109400371
 20
8978.725517440473
 30
0.0
  0
VERTEX
  5
8203
  8
0
 10
4591.676113691906
 20
8978.725517440473
 30
0.0
  0
VERTEX
  5
8204
  8
0
 10
4591.676113691906
 20
9129.225517440473
 30
0.0
  0
VERTEX
  5
8205
  8
0
 10
5383.676109400371
 20
9129.225517440473
 30
0.0
  0
SEQEND
  5
843B
  8
0
  0
POLYLINE
  5
3352
  8
0
 66
     1
 10
0.0
 20
0.0
 30
0.0
 70
     1
  0
VERTEX
  5
8206
  8
0
 10
5383.676109400371
 20
9129.225517440473
 30
0.0
  0
VERTEX
  5
8207
  8
0
 10
4591.676113691906
 20
9129.225517440473
 30
0.0
  0
VERTEX
  5
8208
  8
0
 10
4591.676113691906
 20
9279.725517440473
 30
0.0
  0
VERTEX
  5
8209
  8
0
 10
5383.676109400371
 20
9279.725517440473
 30
0.0
  0
SEQEND
  5
843C
  8
0
  0
POLYLINE
  5
3353
  8
0
 66
     1
 10
0.0
 20
0.0
 30
0.0
 70
     1
  0
VERTEX
  5
820A
  8
0
 10
5383.676109400371
 20
9279.725517440473
 30
0.0
  0
VERTEX
  5
820B
  8
0
 10
4591.676113691906
 20
9279.725517440473
 30
0.0
  0
VERTEX
  5
820C
  8
0
 10
4591.676113691906
 20
9430.225517440458
 30
0.0
  0
VERTEX
  5
820D
  8
0
 10
5383.676109400371
 20
9430.225517440458
 30
0.0
  0
SEQEND
  5
843D
  8
0
  0
POLYLINE
  5
3354
  8
0
 66
     1
 10
0.0
 20
0.0
 30
0.0
 70
     1
  0
VERTEX
  5
820E
  8
0
 10
3007.676122274999
 20
8978.725517440473
 30
0.0
  0
VERTEX
  5
820F
  8
0
 10
3799.676117983453
 20
8978.725517440473
 30
0.0
  0
VERTEX
  5
8210
  8
0
 10
3799.676117983453
 20
9129.225517440473
 30
0.0
  0
VERTEX
  5
8211
  8
0
 10
3007.676122274999
 20
9129.225517440473
 30
0.0
  0
SEQEND
  5
843E
  8
0
  0
POLYLINE
  5
3355
  8
0
 66
     1
 10
0.0
 20
0.0
 30
0.0
 70
     1
  0
VERTEX
  5
8212
  8
0
 10
3007.676122274999
 20
9129.225517440473
 30
0.0
  0
VERTEX
  5
8213
  8
0
 10
3799.676117983453
 20
9129.225517440473
 30
0.0
  0
VERTEX
  5
8214
  8
0
 10
3799.676117983453
 20
9279.725517440473
 30
0.0
  0
VERTEX
  5
8215
  8
0
 10
3007.676122274999
 20
9279.725517440473
 30
0.0
  0
SEQEND
  5
843F
  8
0
  0
POLYLINE
  5
3356
  8
0
 66
     1
 10
0.0
 20
0.0
 30
0.0
 70
     1
  0
VERTEX
  5
8216
  8
0
 10
3007.676122274999
 20
9279.725517440473
 30
0.0
  0
VERTEX
  5
8217
  8
0
 10
3799.676117983453
 20
9279.725517440473
 30
0.0
  0
VERTEX
  5
8218
  8
0
 10
3799.676117983453
 20
9430.225517440458
 30
0.0
  0
VERTEX
  5
8219
  8
0
 10
3007.676122274999
 20
9430.225517440458
 30
0.0
  0
SEQEND
  5
8440
  8
0
  0
POLYLINE
  5
3357
  8
0
 66
     1
 10
0.0
 20
0.0
 30
0.0
 70
     1
  0
VERTEX
  5
821A
  8
0
 10
3007.676122274999
 20
9476.225521255172
 30
0.0
  0
VERTEX
  5
821B
  8
0
 10
5383.676109400371
 20
9476.225521255172
 30
0.0
  0
VERTEX
  5
821C
  8
0
 10
5383.676109400371
 20
9430.225517440458
 30
0.0
  0
VERTEX
  5
821D
  8
0
 10
3007.676122274984
 20
9430.225517440458
 30
0.0
  0
SEQEND
  5
8441
  8
0
  0
POLYLINE
  5
3358
  8
0
 66
     1
 10
0.0
 20
0.0
 30
0.0
 70
     1
  0
VERTEX
  5
821E
  8
0
 10
2993.67612370553
 20
8978.725527286422
 30
0.0
  0
VERTEX
  5
821F
  8
0
 10
3007.676122274999
 20
8978.725527286422
 30
0.0
  0
VERTEX
  5
8220
  8
0
 10
3007.676122274999
 20
9476.225521255172
 30
0.0
  0
VERTEX
  5
8221
  8
0
 10
2993.67612370553
 20
9476.225521255172
 30
0.0
  0
SEQEND
  5
8442
  8
0
  0
POLYLINE
  5
3359
  8
0
 66
     1
 10
0.0
 20
0.0
 30
0.0
 70
     1
  0
VERTEX
  5
8222
  8
0
 10
2993.67612370553
 20
9490.22551982466
 30
0.0
  0
VERTEX
  5
8223
  8
0
 10
5397.676107969862
 20
9490.22551982466
 30
0.0
  0
VERTEX
  5
8224
  8
0
 10
5397.676107969862
 20
9476.225521255172
 30
0.0
  0
VERTEX
  5
8225
  8
0
 10
2993.67612370553
 20
9476.225521255172
 30
0.0
  0
SEQEND
  5
8443
  8
0
  0
POLYLINE
  5
335A
  8
0
 66
     1
 10
0.0
 20
0.0
 30
0.0
 70
     1
  0
VERTEX
  5
8226
  8
0
 10
4591.676113691906
 20
9279.725517440473
 30
0.0
  0
VERTEX
  5
8227
  8
0
 10
3799.676117983465
 20
9279.725517440473
 30
0.0
  0
VERTEX
  5
8228
  8
0
 10
3799.676117983465
 20
9430.225517440458
 30
0.0
  0
VERTEX
  5
8229
  8
0
 10
4591.676113691906
 20
9430.225517440458
 30
0.0
  0
SEQEND
  5
8444
  8
0
  0
POLYLINE
  5
335B
  8
0
 66
     1
 10
0.0
 20
0.0
 30
0.0
 70
     1
  0
VERTEX
  5
822A
  8
0
 10
4591.676113691906
 20
9129.225517440473
 30
0.0
  0
VERTEX
  5
822B
  8
0
 10
3799.676117983465
 20
9129.225517440473
 30
0.0
  0
VERTEX
  5
822C
  8
0
 10
3799.676117983465
 20
9279.725517440473
 30
0.0
  0
VERTEX
  5
822D
  8
0
 10
4591.676113691906
 20
9279.725517440473
 30
0.0
  0
SEQEND
  5
8445
  8
0
  0
POLYLINE
  5
335C
  8
0
 66
     1
 10
0.0
 20
0.0
 30
0.0
 70
     1
  0
VERTEX
  5
822E
  8
0
 10
4591.676113691906
 20
8978.725517440473
 30
0.0
  0
VERTEX
  5
822F
  8
0
 10
3799.676117983465
 20
8978.725517440473
 30
0.0
  0
VERTEX
  5
8230
  8
0
 10
3799.676117983465
 20
9129.225517440473
 30
0.0
  0
VERTEX
  5
8231
  8
0
 10
4591.676113691906
 20
9129.225517440473
 30
0.0
  0
SEQEND
  5
8446
  8
0
  0
POLYLINE
  5
335D
  8
0
 66
     1
 10
0.0
 20
0.0
 30
0.0
 70
     1
  0
VERTEX
  5
8232
  8
0
 10
5397.676107969862
 20
8978.725527286422
 30
0.0
  0
VERTEX
  5
8233
  8
0
 10
5383.676109400371
 20
8978.725527286422
 30
0.0
  0
VERTEX
  5
8234
  8
0
 10
5383.676109400371
 20
9476.225521255172
 30
0.0
  0
VERTEX
  5
8235
  8
0
 10
5397.676107969862
 20
9476.225521255172
 30
0.0
  0
SEQEND
  5
8447
  8
0
  0
POLYLINE
  5
335E
  8
0
 66
     1
 10
0.0
 20
0.0
 30
0.0
 70
     1
  0
VERTEX
  5
8236
  8
0
 10
812.0000023951284
 20
8964.725528716934
 30
0.0
  0
VERTEX
  5
8237
  8
0
 10
2423.999990951034
 20
8964.725528716934
 30
0.0
  0
VERTEX
  5
8238
  8
0
 10
2423.999990951034
 20
8978.725527286422
 30
0.0
  0
VERTEX
  5
8239
  8
0
 10
812.0000023951284
 20
8978.725527286422
 30
0.0
  0
SEQEND
  5
8448
  8
0
  0
POLYLINE
  5
335F
  8
0
 66
     1
 10
0.0
 20
0.0
 30
0.0
 70
     1
  0
VERTEX
  5
823A
  8
0
 10
2423.999990951034
 20
8978.725527286422
 30
0.0
  0
VERTEX
  5
823B
  8
0
 10
2409.99999238156
 20
8978.725527286422
 30
0.0
  0
VERTEX
  5
823C
  8
0
 10
2409.99999238156
 20
9476.225521255172
 30
0.0
  0
VERTEX
  5
823D
  8
0
 10
2423.999990951034
 20
9476.225521255172
 30
0.0
  0
SEQEND
  5
8449
  8
0
  0
POLYLINE
  5
3360
  8
0
 66
     1
 10
0.0
 20
0.0
 30
0.0
 70
     1
  0
VERTEX
  5
823E
  8
0
 10
2409.999992381545
 20
8978.725517440473
 30
0.0
  0
VERTEX
  5
823F
  8
0
 10
1617.999996673082
 20
8978.725517440473
 30
0.0
  0
VERTEX
  5
8240
  8
0
 10
1617.999996673082
 20
9129.225517440473
 30
0.0
  0
VERTEX
  5
8241
  8
0
 10
2409.999992381545
 20
9129.225517440473
 30
0.0
  0
SEQEND
  5
844A
  8
0
  0
POLYLINE
  5
3361
  8
0
 66
     1
 10
0.0
 20
0.0
 30
0.0
 70
     1
  0
VERTEX
  5
8242
  8
0
 10
2409.999992381545
 20
9129.225517440473
 30
0.0
  0
VERTEX
  5
8243
  8
0
 10
1617.999996673082
 20
9129.225517440473
 30
0.0
  0
VERTEX
  5
8244
  8
0
 10
1617.999996673082
 20
9279.725517440473
 30
0.0
  0
VERTEX
  5
8245
  8
0
 10
2409.999992381545
 20
9279.725517440473
 30
0.0
  0
SEQEND
  5
844B
  8
0
  0
POLYLINE
  5
3362
  8
0
 66
     1
 10
0.0
 20
0.0
 30
0.0
 70
     1
  0
VERTEX
  5
8246
  8
0
 10
2409.999992381545
 20
9279.725517440473
 30
0.0
  0
VERTEX
  5
8247
  8
0
 10
1617.999996673082
 20
9279.725517440473
 30
0.0
  0
VERTEX
  5
8248
  8
0
 10
1617.999996673082
 20
9430.225517440458
 30
0.0
  0
VERTEX
  5
8249
  8
0
 10
2409.999992381545
 20
9430.225517440458
 30
0.0
  0
SEQEND
  5
844C
  8
0
  0
POLYLINE
  5
3363
  8
0
 66
     1
 10
0.0
 20
0.0
 30
0.0
 70
     1
  0
VERTEX
  5
824A
  8
0
 10
812.0000023951284
 20
9490.22551982466
 30
0.0
  0
VERTEX
  5
824B
  8
0
 10
2423.999990951034
 20
9490.22551982466
 30
0.0
  0
VERTEX
  5
824C
  8
0
 10
2423.999990951034
 20
9476.225521255172
 30
0.0
  0
VERTEX
  5
824D
  8
0
 10
812.0000023951284
 20
9476.225521255172
 30
0.0
  0
SEQEND
  5
844D
  8
0
  0
POLYLINE
  5
3364
  8
0
 66
     1
 10
0.0
 20
0.0
 30
0.0
 70
     1
  0
VERTEX
  5
824E
  8
0
 10
812.0000023951284
 20
8978.725527286422
 30
0.0
  0
VERTEX
  5
824F
  8
0
 10
826.0000009646169
 20
8978.725527286422
 30
0.0
  0
VERTEX
  5
8250
  8
0
 10
826.0000009646169
 20
9476.225521255172
 30
0.0
  0
VERTEX
  5
8251
  8
0
 10
812.0000023951284
 20
9476.225521255172
 30
0.0
  0
SEQEND
  5
844E
  8
0
  0
POLYLINE
  5
3365
  8
0
 66
     1
 10
0.0
 20
0.0
 30
0.0
 70
     1
  0
VERTEX
  5
8252
  8
0
 10
826.0000009646169
 20
9476.225521255172
 30
0.0
  0
VERTEX
  5
8253
  8
0
 10
2409.99999238156
 20
9476.225521255172
 30
0.0
  0
VERTEX
  5
8254
  8
0
 10
2409.999992381545
 20
9430.225517440458
 30
0.0
  0
VERTEX
  5
8255
  8
0
 10
826.0000009646095
 20
9430.225517440458
 30
0.0
  0
SEQEND
  5
844F
  8
0
  0
POLYLINE
  5
3366
  8
0
 66
     1
 10
0.0
 20
0.0
 30
0.0
 70
     1
  0
VERTEX
  5
8256
  8
0
 10
826.0000009646169
 20
9279.725517440473
 30
0.0
  0
VERTEX
  5
8257
  8
0
 10
1617.999996673082
 20
9279.725517440473
 30
0.0
  0
VERTEX
  5
8258
  8
0
 10
1617.999996673082
 20
9430.225517440458
 30
0.0
  0
VERTEX
  5
8259
  8
0
 10
826.0000009646169
 20
9430.225517440458
 30
0.0
  0
SEQEND
  5
8450
  8
0
  0
POLYLINE
  5
3367
  8
0
 66
     1
 10
0.0
 20
0.0
 30
0.0
 70
     1
  0
VERTEX
  5
825A
  8
0
 10
826.0000009646169
 20
9129.225517440473
 30
0.0
  0
VERTEX
  5
825B
  8
0
 10
1617.999996673082
 20
9129.225517440473
 30
0.0
  0
VERTEX
  5
825C
  8
0
 10
1617.999996673082
 20
9279.725517440473
 30
0.0
  0
VERTEX
  5
825D
  8
0
 10
826.0000009646169
 20
9279.725517440473
 30
0.0
  0
SEQEND
  5
8451
  8
0
  0
POLYLINE
  5
3368
  8
0
 66
     1
 10
0.0
 20
0.0
 30
0.0
 70
     1
  0
VERTEX
  5
825E
  8
0
 10
826.0000009646169
 20
8978.725517440473
 30
0.0
  0
VERTEX
  5
825F
  8
0
 10
1617.999996673082
 20
8978.725517440473
 30
0.0
  0
VERTEX
  5
8260
  8
0
 10
1617.999996673082
 20
9129.225517440473
 30
0.0
  0
VERTEX
  5
8261
  8
0
 10
826.0000009646169
 20
9129.225517440473
 30
0.0
  0
SEQEND
  5
8452
  8
0
  0
POLYLINE
  5
3369
  8
0
 66
     1
 10
0.0
 20
0.0
 30
0.0
 70
     1
  0
VERTEX
  5
8262
  8
0
 10
12619.12569561671
 20
10432.22551982466
 30
0.0
  0
VERTEX
  5
8263
  8
0
 10
0.0000000000030974
 20
10432.22551982466
 30
0.0
  0
VERTEX
  5
8264
  8
0
 10
0.0000000000030974
 20
6263.978225484239
 30
0.0
  0
VERTEX
  5
8265
  8
0
 10
12619.12569561671
 20
6263.978225484239
 30
0.0
  0
SEQEND
  5
8453
  8
0
  0
POLYLINE
  5
4161
  8
0
 66
     1
 10
0.0
 20
0.0
 30
0.0
 70
     1
  0
VERTEX
  5
8266
  8
0
 10
9747.449574772243
 20
15951.97281306984
 30
0.0
  0
VERTEX
  5
8267
  8
0
 10
10197.44956761966
 20
15951.97281306984
 30
0.0
  0
VERTEX
  5
8268
  8
0
 10
10197.44956761966
 20
15937.97281450035
 30
0.0
  0
VERTEX
  5
8269
  8
0
 10
9747.449574772243
 20
15937.97281450035
 30
0.0
  0
SEQEND
  5
8454
  8
0
  0
POLYLINE
  5
4162
  8
0
 66
     1
 10
0.0
 20
0.0
 30
0.0
 70
     1
  0
VERTEX
  5
826A
  8
0
 10
10197.44956761966
 20
15440.4728205316
 30
0.0
  0
VERTEX
  5
826B
  8
0
 10
9747.449574772243
 20
15440.4728205316
 30
0.0
  0
VERTEX
  5
826C
  8
0
 10
9747.449574772243
 20
15425.47282086687
 30
0.0
  0
VERTEX
  5
826D
  8
0
 10
10197.44956761966
 20
15425.47282086687
 30
0.0
  0
SEQEND
  5
8455
  8
0
  0
POLYLINE
  5
4163
  8
0
 66
     1
 10
0.0
 20
0.0
 30
0.0
 70
     1
  0
VERTEX
  5
826E
  8
0
 10
9747.449574772243
 20
15937.97281450035
 30
0.0
  0
VERTEX
  5
826F
  8
0
 10
10197.44956761966
 20
15937.97281450035
 30
0.0
  0
VERTEX
  5
8270
  8
0
 10
10197.44956761966
 20
15440.4728205316
 30
0.0
  0
VERTEX
  5
8271
  8
0
 10
9747.449574772243
 20
15440.4728205316
 30
0.0
  0
SEQEND
  5
8456
  8
0
  0
POLYLINE
  5
4171
  8
0
 66
     1
 10
0.0
 20
0.0
 30
0.0
 70
     1
  0
VERTEX
  5
8272
  8
0
 10
2215.676126566541
 20
15741.47281068564
 30
0.0
  0
VERTEX
  5
8273
  8
0
 10
3007.676122275001
 20
15741.47281068564
 30
0.0
  0
VERTEX
  5
8274
  8
0
 10
3007.676122275001
 20
15891.97281068564
 30
0.0
  0
VERTEX
  5
8275
  8
0
 10
2215.676126566541
 20
15891.97281068564
 30
0.0
  0
SEQEND
  5
8457
  8
0
  0
POLYLINE
  5
4173
  8
0
 66
     1
 10
0.0
 20
0.0
 30
0.0
 70
     1
  0
VERTEX
  5
8276
  8
0
 10
2215.676126566541
 20
15937.97281450035
 30
0.0
  0
VERTEX
  5
8277
  8
0
 10
3007.676122275001
 20
15937.97281450035
 30
0.0
  0
VERTEX
  5
8278
  8
0
 10
3007.676122275001
 20
15891.97281068564
 30
0.0
  0
VERTEX
  5
8279
  8
0
 10
2215.676126566536
 20
15891.97281068564
 30
0.0
  0
SEQEND
  5
8458
  8
0
  0
POLYLINE
  5
4174
  8
0
 66
     1
 10
0.0
 20
0.0
 30
0.0
 70
     1
  0
VERTEX
  5
827A
  8
0
 10
2201.67612799706
 20
15440.47282053159
 30
0.0
  0
VERTEX
  5
827B
  8
0
 10
2215.676126566541
 20
15440.47282053159
 30
0.0
  0
VERTEX
  5
827C
  8
0
 10
2215.676126566541
 20
15937.97281450035
 30
0.0
  0
VERTEX
  5
827D
  8
0
 10
2201.67612799706
 20
15937.97281450035
 30
0.0
  0
SEQEND
  5
8459
  8
0
  0
POLYLINE
  5
4175
  8
0
 66
     1
 10
0.0
 20
0.0
 30
0.0
 70
     1
  0
VERTEX
  5
827E
  8
0
 10
3021.676120844503
 20
15440.4728205316
 30
0.0
  0
VERTEX
  5
827F
  8
0
 10
2201.67612799706
 20
15440.4728205316
 30
0.0
  0
VERTEX
  5
8280
  8
0
 10
2201.67612799706
 20
15425.47282086686
 30
0.0
  0
VERTEX
  5
8281
  8
0
 10
3021.676120844503
 20
15425.47282086686
 30
0.0
  0
SEQEND
  5
845A
  8
0
  0
POLYLINE
  5
4176
  8
0
 66
     1
 10
0.0
 20
0.0
 30
0.0
 70
     1
  0
VERTEX
  5
8282
  8
0
 10
3007.676122275001
 20
15937.97281450035
 30
0.0
  0
VERTEX
  5
8283
  8
0
 10
3021.676120844503
 20
15937.97281450035
 30
0.0
  0
VERTEX
  5
8284
  8
0
 10
3021.676120844503
 20
15440.4728205316
 30
0.0
  0
VERTEX
  5
8285
  8
0
 10
3007.676122275001
 20
15440.4728205316
 30
0.0
  0
SEQEND
  5
845B
  8
0
  0
POLYLINE
  5
4177
  8
0
 66
     1
 10
0.0
 20
0.0
 30
0.0
 70
     1
  0
VERTEX
  5
8286
  8
0
 10
2201.67612799706
 20
15951.97281306984
 30
0.0
  0
VERTEX
  5
8287
  8
0
 10
3021.676120844503
 20
15951.97281306984
 30
0.0
  0
VERTEX
  5
8288
  8
0
 10
3021.676120844503
 20
15937.97281450035
 30
0.0
  0
VERTEX
  5
8289
  8
0
 10
2201.67612799706
 20
15937.97281450035
 30
0.0
  0
SEQEND
  5
845C
  8
0
  0
POLYLINE
  5
4178
  8
0
 66
     1
 10
0.0
 20
0.0
 30
0.0
 70
     1
  0
VERTEX
  5
828A
  8
0
 10
2215.676126566541
 20
15440.47282053159
 30
0.0
  0
VERTEX
  5
828B
  8
0
 10
3007.676122275001
 20
15440.47282053159
 30
0.0
  0
VERTEX
  5
828C
  8
0
 10
3007.676122275001
 20
15741.47281068564
 30
0.0
  0
VERTEX
  5
828D
  8
0
 10
2215.676126566541
 20
15741.47281068564
 30
0.0
  0
SEQEND
  5
845D
  8
0
  0
POLYLINE
  5
4179
  8
0
 66
     1
 10
0.0
 20
0.0
 30
0.0
 70
     1
  0
VERTEX
  5
828E
  8
0
 10
826.0000009646384
 20
15440.47281068564
 30
0.0
  0
VERTEX
  5
828F
  8
0
 10
1617.9999966731
 20
15440.47281068564
 30
0.0
  0
VERTEX
  5
8290
  8
0
 10
1617.9999966731
 20
15590.97281068564
 30
0.0
  0
VERTEX
  5
8291
  8
0
 10
826.0000009646384
 20
15590.97281068564
 30
0.0
  0
SEQEND
  5
845E
  8
0
  0
POLYLINE
  5
417A
  8
0
 66
     1
 10
0.0
 20
0.0
 30
0.0
 70
     1
  0
VERTEX
  5
8292
  8
0
 10
826.0000009646384
 20
15590.97281068564
 30
0.0
  0
VERTEX
  5
8293
  8
0
 10
1617.9999966731
 20
15590.97281068564
 30
0.0
  0
VERTEX
  5
8294
  8
0
 10
1617.9999966731
 20
15741.47281068564
 30
0.0
  0
VERTEX
  5
8295
  8
0
 10
826.0000009646384
 20
15741.47281068564
 30
0.0
  0
SEQEND
  5
845F
  8
0
  0
POLYLINE
  5
417B
  8
0
 66
     1
 10
0.0
 20
0.0
 30
0.0
 70
     1
  0
VERTEX
  5
8296
  8
0
 10
826.0000009646384
 20
15741.47281068564
 30
0.0
  0
VERTEX
  5
8297
  8
0
 10
1617.9999966731
 20
15741.47281068564
 30
0.0
  0
VERTEX
  5
8298
  8
0
 10
1617.9999966731
 20
15891.97281068564
 30
0.0
  0
VERTEX
  5
8299
  8
0
 10
826.0000009646384
 20
15891.97281068564
 30
0.0
  0
SEQEND
  5
8460
  8
0
  0
POLYLINE
  5
417D
  8
0
 66
     1
 10
0.0
 20
0.0
 30
0.0
 70
     1
  0
VERTEX
  5
829A
  8
0
 10
826.0000009646384
 20
15937.97281450035
 30
0.0
  0
VERTEX
  5
829B
  8
0
 10
1617.9999966731
 20
15937.97281450035
 30
0.0
  0
VERTEX
  5
829C
  8
0
 10
1617.9999966731
 20
15891.97281068564
 30
0.0
  0
VERTEX
  5
829D
  8
0
 10
826.0000009646384
 20
15891.97281068564
 30
0.0
  0
SEQEND
  5
8461
  8
0
  0
POLYLINE
  5
417E
  8
0
 66
     1
 10
0.0
 20
0.0
 30
0.0
 70
     1
  0
VERTEX
  5
829E
  8
0
 10
812.0000023951574
 20
15440.47282053159
 30
0.0
  0
VERTEX
  5
829F
  8
0
 10
826.0000009646384
 20
15440.47282053159
 30
0.0
  0
VERTEX
  5
82A0
  8
0
 10
826.0000009646384
 20
15937.97281450035
 30
0.0
  0
VERTEX
  5
82A1
  8
0
 10
812.0000023951574
 20
15937.97281450035
 30
0.0
  0
SEQEND
  5
8462
  8
0
  0
POLYLINE
  5
417F
  8
0
 66
     1
 10
0.0
 20
0.0
 30
0.0
 70
     1
  0
VERTEX
  5
82A2
  8
0
 10
1631.999995242603
 20
15440.4728205316
 30
0.0
  0
VERTEX
  5
82A3
  8
0
 10
812.0000023951574
 20
15440.4728205316
 30
0.0
  0
VERTEX
  5
82A4
  8
0
 10
812.0000023951574
 20
15425.47282086686
 30
0.0
  0
VERTEX
  5
82A5
  8
0
 10
1631.999995242603
 20
15425.47282086686
 30
0.0
  0
SEQEND
  5
8463
  8
0
  0
POLYLINE
  5
4180
  8
0
 66
     1
 10
0.0
 20
0.0
 30
0.0
 70
     1
  0
VERTEX
  5
82A6
  8
0
 10
1617.9999966731
 20
15937.97281450035
 30
0.0
  0
VERTEX
  5
82A7
  8
0
 10
1631.999995242603
 20
15937.97281450035
 30
0.0
  0
VERTEX
  5
82A8
  8
0
 10
1631.999995242603
 20
15440.4728205316
 30
0.0
  0
VERTEX
  5
82A9
  8
0
 10
1617.9999966731
 20
15440.4728205316
 30
0.0
  0
SEQEND
  5
8464
  8
0
  0
POLYLINE
  5
4181
  8
0
 66
     1
 10
0.0
 20
0.0
 30
0.0
 70
     1
  0
VERTEX
  5
82AA
  8
0
 10
812.0000023951574
 20
15951.97281306984
 30
0.0
  0
VERTEX
  5
82AB
  8
0
 10
1631.999995242603
 20
15951.97281306984
 30
0.0
  0
VERTEX
  5
82AC
  8
0
 10
1631.999995242603
 20
15937.97281450035
 30
0.0
  0
VERTEX
  5
82AD
  8
0
 10
812.0000023951574
 20
15937.97281450035
 30
0.0
  0
SEQEND
  5
8465
  8
0
  0
POLYLINE
  5
4192
  8
0
 66
     1
 10
0.0
 20
0.0
 30
0.0
 70
     1
  0
VERTEX
  5
82AE
  8
0
 10
847.0000019779195
 20
15425.47282086686
 30
0.0
  0
VERTEX
  5
82AF
  8
0
 10
866.9999978056194
 20
15425.47282086686
 30
0.0
  0
VERTEX
  5
82B0
  8
0
 10
866.9999978056194
 20
15411.47114453289
 30
0.0
  0
VERTEX
  5
82B1
  8
0
 10
847.0000019779195
 20
15411.47114453289
 30
0.0
  0
SEQEND
  5
8466
  8
0
  0
POLYLINE
  5
4193
  8
0
 66
     1
 10
0.0
 20
0.0
 30
0.0
  0
VERTEX
  5
82B2
  8
0
 10
850.0000080576172
 20
15411.47114453289
 30
0.0
  0
VERTEX
  5
82B3
  8
0
 10
838.0000135412178
 20
15411.47114453289
 30
0.0
  0
VERTEX
  5
82B4
  8
0
 10
836.000009488117
 20
15409.47114420499
 30
0.0
  0
VERTEX
  5
82B5
  8
0
 10
836.000009488117
 20
15345.47114116519
 30
0.0
  0
VERTEX
  5
82B6
  8
0
 10
838.0000135412178
 20
15343.47114456269
 30
0.0
  0
VERTEX
  5
82B7
  8
0
 10
850.0000080576172
 20
15343.47114456269
 30
0.0
  0
VERTEX
  5
82B8
  8
0
 10
850.0000080576172
 20
15411.47114453289
 30
0.0
  0
SEQEND
  5
8467
  8
0
  0
POLYLINE
  5
4194
  8
0
 66
     1
 10
0.0
 20
0.0
 30
0.0
 70
     1
  0
VERTEX
  5
82B9
  8
0
 10
850.000008057618
 20
15411.47114453289
 30
0.0
  0
VERTEX
  5
82BA
  8
0
 10
864.0000066271195
 20
15411.47114453289
 30
0.0
  0
VERTEX
  5
82BB
  8
0
 10
864.0000066271195
 20
15343.47114456269
 30
0.0
  0
VERTEX
  5
82BC
  8
0
 10
850.000008057618
 20
15343.47114456269
 30
0.0
  0
SEQEND
  5
8468
  8
0
  0
POLYLINE
  5
4195
  8
0
 66
     1
 10
0.0
 20
0.0
 30
0.0
  0
VERTEX
  5
82BD
  8
0
 10
864.0000066271195
 20
15411.47114453289
 30
0.0
  0
VERTEX
  5
82BE
  8
0
 10
876.0000011435183
 20
15411.47114453289
 30
0.0
  0
VERTEX
  5
82BF
  8
0
 10
878.0000051966196
 20
15409.47114420499
 30
0.0
  0
VERTEX
  5
82C0
  8
0
 10
878.0000051966196
 20
15345.47114116519
 30
0.0
  0
VERTEX
  5
82C1
  8
0
 10
876.0000011435183
 20
15343.47114456269
 30
0.0
  0
VERTEX
  5
82C2
  8
0
 10
864.0000066271195
 20
15343.47114456269
 30
0.0
  0
VERTEX
  5
82C3
  8
0
 10
864.0000066271195
 20
15411.47114453289
 30
0.0
  0
SEQEND
  5
8469
  8
0
  0
POLYLINE
  5
41A4
  8
0
 66
     1
 10
0.0
 20
0.0
 30
0.0
  0
VERTEX
  5
82C4
  8
0
 10
1579.999991010641
 20
15411.47114453289
 30
0.0
  0
VERTEX
  5
82C5
  8
0
 10
1567.999996494242
 20
15411.47114453289
 30
0.0
  0
VERTEX
  5
82C6
  8
0
 10
1565.99999244114
 20
15409.47114420499
 30
0.0
  0
VERTEX
  5
82C7
  8
0
 10
1565.99999244114
 20
15345.47114116519
 30
0.0
  0
VERTEX
  5
82C8
  8
0
 10
1567.999996494242
 20
15343.47114456269
 30
0.0
  0
VERTEX
  5
82C9
  8
0
 10
1579.999991010641
 20
15343.47114456269
 30
0.0
  0
VERTEX
  5
82CA
  8
0
 10
1579.999991010641
 20
15411.47114453289
 30
0.0
  0
SEQEND
  5
846A
  8
0
  0
POLYLINE
  5
41A5
  8
0
 66
     1
 10
0.0
 20
0.0
 30
0.0
 70
     1
  0
VERTEX
  5
82CB
  8
0
 10
1593.999989580142
 20
15411.47114453289
 30
0.0
  0
VERTEX
  5
82CC
  8
0
 10
1579.999991010641
 20
15411.47114453289
 30
0.0
  0
VERTEX
  5
82CD
  8
0
 10
1579.999991010641
 20
15343.47114456269
 30
0.0
  0
VERTEX
  5
82CE
  8
0
 10
1593.999989580142
 20
15343.47114456269
 30
0.0
  0
SEQEND
  5
846B
  8
0
  0
POLYLINE
  5
41A6
  8
0
 66
     1
 10
0.0
 20
0.0
 30
0.0
  0
VERTEX
  5
82CF
  8
0
 10
1593.999989580143
 20
15411.47114453289
 30
0.0
  0
VERTEX
  5
82D0
  8
0
 10
1605.999984096542
 20
15411.47114453289
 30
0.0
  0
VERTEX
  5
82D1
  8
0
 10
1607.999988149643
 20
15409.47114420499
 30
0.0
  0
VERTEX
  5
82D2
  8
0
 10
1607.999988149643
 20
15345.47114116519
 30
0.0
  0
VERTEX
  5
82D3
  8
0
 10
1605.999984096542
 20
15343.47114456269
 30
0.0
  0
VERTEX
  5
82D4
  8
0
 10
1593.999989580143
 20
15343.47114456269
 30
0.0
  0
VERTEX
  5
82D5
  8
0
 10
1593.999989580143
 20
15411.47114453289
 30
0.0
  0
SEQEND
  5
846C
  8
0
  0
POLYLINE
  5
41A8
  8
0
 66
     1
 10
0.0
 20
0.0
 30
0.0
 70
     1
  0
VERTEX
  5
82D6
  8
0
 10
1596.99999565984
 20
15425.47282086686
 30
0.0
  0
VERTEX
  5
82D7
  8
0
 10
1576.999999832141
 20
15425.47282086686
 30
0.0
  0
VERTEX
  5
82D8
  8
0
 10
1576.999999832141
 20
15411.47114453289
 30
0.0
  0
VERTEX
  5
82D9
  8
0
 10
1596.99999565984
 20
15411.47114453289
 30
0.0
  0
SEQEND
  5
846D
  8
0
  0
POLYLINE
  5
41A9
  8
0
 66
     1
 10
0.0
 20
0.0
 30
0.0
 70
     1
  0
VERTEX
  5
82DA
  8
0
 10
2986.676121261741
 20
15425.47282086686
 30
0.0
  0
VERTEX
  5
82DB
  8
0
 10
2966.676125434041
 20
15425.47282086686
 30
0.0
  0
VERTEX
  5
82DC
  8
0
 10
2966.676125434041
 20
15411.47114453289
 30
0.0
  0
VERTEX
  5
82DD
  8
0
 10
2986.676121261741
 20
15411.47114453289
 30
0.0
  0
SEQEND
  5
846E
  8
0
  0
POLYLINE
  5
41AA
  8
0
 66
     1
 10
0.0
 20
0.0
 30
0.0
  0
VERTEX
  5
82DE
  8
0
 10
2983.676115182042
 20
15411.47114453289
 30
0.0
  0
VERTEX
  5
82DF
  8
0
 10
2995.676109698443
 20
15411.47114453289
 30
0.0
  0
VERTEX
  5
82E0
  8
0
 10
2997.676113751544
 20
15409.47114420499
 30
0.0
  0
VERTEX
  5
82E1
  8
0
 10
2997.676113751544
 20
15345.47114116519
 30
0.0
  0
VERTEX
  5
82E2
  8
0
 10
2995.676109698443
 20
15343.47114456269
 30
0.0
  0
VERTEX
  5
82E3
  8
0
 10
2983.676115182042
 20
15343.47114456269
 30
0.0
  0
VERTEX
  5
82E4
  8
0
 10
2983.676115182042
 20
15411.47114453289
 30
0.0
  0
SEQEND
  5
846F
  8
0
  0
POLYLINE
  5
41AB
  8
0
 66
     1
 10
0.0
 20
0.0
 30
0.0
 70
     1
  0
VERTEX
  5
82E5
  8
0
 10
2983.676115182042
 20
15411.47114453289
 30
0.0
  0
VERTEX
  5
82E6
  8
0
 10
2969.676116612541
 20
15411.47114453289
 30
0.0
  0
VERTEX
  5
82E7
  8
0
 10
2969.676116612541
 20
15343.47114456269
 30
0.0
  0
VERTEX
  5
82E8
  8
0
 10
2983.676115182042
 20
15343.47114456269
 30
0.0
  0
SEQEND
  5
8470
  8
0
  0
POLYLINE
  5
41AC
  8
0
 66
     1
 10
0.0
 20
0.0
 30
0.0
  0
VERTEX
  5
82E9
  8
0
 10
2969.676116612541
 20
15411.47114453289
 30
0.0
  0
VERTEX
  5
82EA
  8
0
 10
2957.676122096142
 20
15411.47114453289
 30
0.0
  0
VERTEX
  5
82EB
  8
0
 10
2955.676118043043
 20
15409.47114420499
 30
0.0
  0
VERTEX
  5
82EC
  8
0
 10
2955.676118043043
 20
15345.47114116519
 30
0.0
  0
VERTEX
  5
82ED
  8
0
 10
2957.676122096142
 20
15343.47114456269
 30
0.0
  0
VERTEX
  5
82EE
  8
0
 10
2969.676116612541
 20
15343.47114456269
 30
0.0
  0
VERTEX
  5
82EF
  8
0
 10
2969.676116612541
 20
15411.47114453289
 30
0.0
  0
SEQEND
  5
8471
  8
0
  0
POLYLINE
  5
41AD
  8
0
 66
     1
 10
0.0
 20
0.0
 30
0.0
  0
VERTEX
  5
82F0
  8
0
 10
2253.676132229021
 20
15411.47114453289
 30
0.0
  0
VERTEX
  5
82F1
  8
0
 10
2265.676126745419
 20
15411.47114453289
 30
0.0
  0
VERTEX
  5
82F2
  8
0
 10
2267.67613079852
 20
15409.47114420499
 30
0.0
  0
VERTEX
  5
82F3
  8
0
 10
2267.67613079852
 20
15345.47114116519
 30
0.0
  0
VERTEX
  5
82F4
  8
0
 10
2265.676126745419
 20
15343.47114456269
 30
0.0
  0
VERTEX
  5
82F5
  8
0
 10
2253.676132229021
 20
15343.47114456269
 30
0.0
  0
VERTEX
  5
82F6
  8
0
 10
2253.676132229021
 20
15411.47114453289
 30
0.0
  0
SEQEND
  5
8472
  8
0
  0
POLYLINE
  5
41AE
  8
0
 66
     1
 10
0.0
 20
0.0
 30
0.0
 70
     1
  0
VERTEX
  5
82F7
  8
0
 10
2239.67613365952
 20
15411.47114453289
 30
0.0
  0
VERTEX
  5
82F8
  8
0
 10
2253.676132229021
 20
15411.47114453289
 30
0.0
  0
VERTEX
  5
82F9
  8
0
 10
2253.676132229021
 20
15343.47114456269
 30
0.0
  0
VERTEX
  5
82FA
  8
0
 10
2239.67613365952
 20
15343.47114456269
 30
0.0
  0
SEQEND
  5
8473
  8
0
  0
POLYLINE
  5
41AF
  8
0
 66
     1
 10
0.0
 20
0.0
 30
0.0
  0
VERTEX
  5
82FB
  8
0
 10
2239.676133659517
 20
15411.47114453289
 30
0.0
  0
VERTEX
  5
82FC
  8
0
 10
2227.676139143119
 20
15411.47114453289
 30
0.0
  0
VERTEX
  5
82FD
  8
0
 10
2225.676135090017
 20
15409.47114420499
 30
0.0
  0
VERTEX
  5
82FE
  8
0
 10
2225.676135090017
 20
15345.47114116519
 30
0.0
  0
VERTEX
  5
82FF
  8
0
 10
2227.676139143119
 20
15343.47114456269
 30
0.0
  0
VERTEX
  5
8300
  8
0
 10
2239.676133659517
 20
15343.47114456269
 30
0.0
  0
VERTEX
  5
8301
  8
0
 10
2239.676133659517
 20
15411.47114453289
 30
0.0
  0
SEQEND
  5
8474
  8
0
  0
POLYLINE
  5
41B0
  8
0
 66
     1
 10
0.0
 20
0.0
 30
0.0
 70
     1
  0
VERTEX
  5
8302
  8
0
 10
2236.67612757982
 20
15425.47282086686
 30
0.0
  0
VERTEX
  5
8303
  8
0
 10
2256.676123407519
 20
15425.47282086686
 30
0.0
  0
VERTEX
  5
8304
  8
0
 10
2256.676123407519
 20
15411.47114453289
 30
0.0
  0
VERTEX
  5
8305
  8
0
 10
2236.67612757982
 20
15411.47114453289
 30
0.0
  0
SEQEND
  5
8475
  8
0
  0
POLYLINE
  5
41B9
  8
0
 66
     1
 10
0.0
 20
0.0
 30
0.0
  0
VERTEX
  5
8306
  8
0
 10
9799.82876714029
 20
15411.22088991745
 30
0.0
  0
VERTEX
  5
8307
  8
0
 10
9799.82876714029
 20
15425.47282086687
 30
0.0
  0
VERTEX
  5
8308
  8
0
 10
9819.886502167088
 20
15425.47282086687
 30
0.0
  0
VERTEX
  5
8309
  8
0
 10
9819.828767140292
 20
15389.45180701917
 30
0.0
 42
0.2070334238569002
  0
VERTEX
  5
830A
  8
0
 10
9799.828767140332
 20
15411.2464355722
 30
0.0
 42
0.2070334238569002
  0
SEQEND
  5
8476
  8
0
  0
POLYLINE
  5
41BA
  8
0
 66
     1
 10
0.0
 20
0.0
 30
0.0
  0
VERTEX
  5
830B
  8
0
 10
9784.828767140298
 20
15411.39782086686
 30
0.0
 42
2.412760312512757
  0
VERTEX
  5
830C
  8
0
 10
9818.886502167088
 20
15377.39782086686
 30
0.0
  0
VERTEX
  5
830D
  8
0
 10
9802.82876714029
 20
15377.39782086893
 30
0.0
 42
-2.4099953482109
  0
VERTEX
  5
830E
  8
0
 10
9784.828767140298
 20
15395.39782086648
 30
0.0
  0
VERTEX
  5
830F
  8
0
 10
9784.828767140298
 20
15411.39782086686
 30
0.0
  0
SEQEND
  5
8477
  8
0
  0
POLYLINE
  5
41BB
  8
0
 66
     1
 10
0.0
 20
0.0
 30
0.0
  0
VERTEX
  5
8310
  8
0
 10
9784.828767140298
 20
15395.39779771852
 30
0.0
  0
VERTEX
  5
8311
  8
0
 10
9784.828767140298
 20
15414.39782086686
 30
0.0
 42
-0.4142135623730753
  0
VERTEX
  5
8312
  8
0
 10
9821.828767140289
 20
15377.39782086686
 30
0.0
  0
VERTEX
  5
8313
  8
0
 10
9802.82876714029
 20
15377.39782086686
 30
0.0
 42
0.4142144707036203
  0
VERTEX
  5
8314
  8
0
 10
9784.828767140298
 20
15395.39779771852
 30
0.0
 42
0.4137439144275917
  0
SEQEND
  5
8478
  8
0
  0
CIRCLE
  5
41BC
  8
0
 10
9784.828767140298
 20
15377.39782086686
 30
0.0
 40
17.99999999960973
  0
CIRCLE
  5
41BD
  8
0
 10
10110.05598101375
 20
15377.38345120592
 30
0.0
 40
17.99999999960973
  0
POLYLINE
  5
41BE
  8
0
 66
     1
 10
0.0
 20
0.0
 30
0.0
  0
VERTEX
  5
8315
  8
0
 10
10110.01264022481
 20
15395.39779771852
 30
0.0
  0
VERTEX
  5
8316
  8
0
 10
10110.01264022481
 20
15414.39782086686
 30
0.0
 42
-0.4142135623730753
  0
VERTEX
  5
8317
  8
0
 10
10147.01264022481
 20
15377.39782086686
 30
0.0
  0
VERTEX
  5
8318
  8
0
 10
10128.01264022481
 20
15377.39782086686
 30
0.0
 42
0.4142144707036203
  0
VERTEX
  5
8319
  8
0
 10
10110.01264022481
 20
15395.39779771852
 30
0.0
 42
0.4137439144275917
  0
SEQEND
  5
8479
  8
0
  0
POLYLINE
  5
41BF
  8
0
 66
     1
 10
0.0
 20
0.0
 30
0.0
  0
VERTEX
  5
831A
  8
0
 10
10110.01264022481
 20
15411.39782086686
 30
0.0
 42
2.412760312512757
  0
VERTEX
  5
831B
  8
0
 10
10144.07037525161
 20
15377.39782086686
 30
0.0
  0
VERTEX
  5
831C
  8
0
 10
10128.01264022481
 20
15377.39782086893
 30
0.0
 42
-2.4099953482109
  0
VERTEX
  5
831D
  8
0
 10
10110.01264022481
 20
15395.39782086648
 30
0.0
  0
VERTEX
  5
831E
  8
0
 10
10110.01264022481
 20
15411.39782086686
 30
0.0
  0
SEQEND
  5
847A
  8
0
  0
POLYLINE
  5
41C0
  8
0
 66
     1
 10
0.0
 20
0.0
 30
0.0
  0
VERTEX
  5
831F
  8
0
 10
10125.01264022481
 20
15411.22088991745
 30
0.0
  0
VERTEX
  5
8320
  8
0
 10
10125.01264022481
 20
15425.47282086687
 30
0.0
  0
VERTEX
  5
8321
  8
0
 10
10145.07037525161
 20
15425.47282086687
 30
0.0
  0
VERTEX
  5
8322
  8
0
 10
10145.01264022481
 20
15389.45180701917
 30
0.0
 42
0.2070334238569002
  0
VERTEX
  5
8323
  8
0
 10
10125.01264022485
 20
15411.2464355722
 30
0.0
 42
0.2070334238569002
  0
SEQEND
  5
847B
  8
0
  0
CIRCLE
  5
5BD1
  8
0
 10
1420.999994050496
 20
19024.96741269186
 30
0.0
 40
9.0
  0
CIRCLE
  5
5BD9
  8
0
 10
1420.999994050496
 20
19024.96741269186
 30
0.0
 40
12.0
  0
POLYLINE
  5
5BDA
  8
0
 66
     1
 10
0.0
 20
0.0
 30
0.0
 70
     1
  0
VERTEX
  5
8324
  8
0
 10
1420.249994050496
 20
19018.96741269186
 30
0.0
  0
VERTEX
  5
8325
  8
0
 10
1420.249994050496
 20
19030.96741269186
 30
0.0
  0
VERTEX
  5
8326
  8
0
 10
1421.749994050496
 20
19030.96741269186
 30
0.0
  0
VERTEX
  5
8327
  8
0
 10
1421.749994050496
 20
19018.96741269186
 30
0.0
  0
SEQEND
  5
847C
  8
0
  0
POLYLINE
  5
5BDB
  8
0
 66
     1
 10
0.0
 20
0.0
 30
0.0
 70
     1
  0
VERTEX
  5
8328
  8
0
 10
5589.278370856291
 20
19018.96741269186
 30
0.0
  0
VERTEX
  5
8329
  8
0
 10
5589.278370856291
 20
19030.96741269186
 30
0.0
  0
VERTEX
  5
832A
  8
0
 10
5590.778370856291
 20
19030.96741269186
 30
0.0
  0
VERTEX
  5
832B
  8
0
 10
5590.778370856291
 20
19018.96741269186
 30
0.0
  0
SEQEND
  5
847D
  8
0
  0
CIRCLE
  5
5BDC
  8
0
 10
5590.028370856291
 20
19024.96741269186
 30
0.0
 40
12.0
  0
CIRCLE
  5
5BDD
  8
0
 10
5590.028370856291
 20
19024.96741269186
 30
0.0
 40
9.0
  0
POLYLINE
  5
5BEA
  8
0
 66
     1
 10
0.0
 20
0.0
 30
0.0
 70
     1
  0
VERTEX
  5
832C
  8
0
 10
1221.249998818871
 20
12751.97282288971
 30
0.0
  0
VERTEX
  5
832D
  8
0
 10
1221.249998818871
 20
12763.97282288971
 30
0.0
  0
VERTEX
  5
832E
  8
0
 10
1222.749998818871
 20
12763.97282288971
 30
0.0
  0
VERTEX
  5
832F
  8
0
 10
1222.749998818871
 20
12751.97282288971
 30
0.0
  0
SEQEND
  5
847E
  8
0
  0
CIRCLE
  5
5BEB
  8
0
 10
1221.999998818871
 20
12757.9728228897
 30
0.0
 40
12.0
  0
CIRCLE
  5
5BEC
  8
0
 10
1221.999998818871
 20
12757.9728228897
 30
0.0
 40
9.0
  0
CIRCLE
  5
5BED
  8
0
 10
2611.676124420795
 20
12757.9728228897
 30
0.0
 40
9.0
  0
CIRCLE
  5
5BEE
  8
0
 10
2611.676124420795
 20
12757.9728228897
 30
0.0
 40
12.0
  0
POLYLINE
  5
5BEF
  8
0
 66
     1
 10
0.0
 20
0.0
 30
0.0
 70
     1
  0
VERTEX
  5
8330
  8
0
 10
2610.926124420795
 20
12751.97282288971
 30
0.0
  0
VERTEX
  5
8331
  8
0
 10
2610.926124420795
 20
12763.97282288971
 30
0.0
  0
VERTEX
  5
8332
  8
0
 10
2612.426124420795
 20
12763.97282288971
 30
0.0
  0
VERTEX
  5
8333
  8
0
 10
2612.426124420795
 20
12751.97282288971
 30
0.0
  0
SEQEND
  5
847F
  8
0
  0
CIRCLE
  5
5BF3
  8
0
 10
4001.352250022715
 20
12758.03532288973
 30
0.0
 40
9.0
  0
CIRCLE
  5
5BF4
  8
0
 10
4001.352250022715
 20
12758.03532288973
 30
0.0
 40
12.0
  0
POLYLINE
  5
5BF5
  8
0
 66
     1
 10
0.0
 20
0.0
 30
0.0
 70
     1
  0
VERTEX
  5
8334
  8
0
 10
4000.602250022715
 20
12752.03532288973
 30
0.0
  0
VERTEX
  5
8335
  8
0
 10
4000.602250022715
 20
12764.03532288973
 30
0.0
  0
VERTEX
  5
8336
  8
0
 10
4002.102250022715
 20
12764.03532288973
 30
0.0
  0
VERTEX
  5
8337
  8
0
 10
4002.102250022715
 20
12752.03532288973
 30
0.0
  0
SEQEND
  5
8480
  8
0
  0
POLYLINE
  5
5C20
  8
0
 66
     1
 10
0.0
 20
0.0
 30
0.0
 70
     1
  0
VERTEX
  5
8338
  8
0
 10
12619.12569561671
 20
5709.941583425798
 30
0.0
  0
VERTEX
  5
8339
  8
0
 10
0.0000000000030974
 20
5709.941583425798
 30
0.0
  0
VERTEX
  5
833A
  8
0
 10
0.0000000000030974
 20
1541.694289085379
 30
0.0
  0
VERTEX
  5
833B
  8
0
 10
12619.12569561671
 20
1541.694289085379
 30
0.0
  0
SEQEND
  5
8481
  8
0
  0
POLYLINE
  5
7D82
  8
0
 66
     1
 10
0.0
 20
0.0
 30
0.0
 70
     1
  0
VERTEX
  5
833C
  8
0
 10
5626.028369425781
 20
18532.46741443168
 30
0.0
  0
VERTEX
  5
833D
  8
0
 10
5626.028369425781
 20
18496.46741443168
 30
0.0
  0
VERTEX
  5
833E
  8
0
 10
5608.528369425781
 20
18496.46741443168
 30
0.0
  0
VERTEX
  5
833F
  8
0
 10
5608.528369425781
 20
18532.46741443168
 30
0.0
  0
SEQEND
  5
8482
  8
0
  0
POLYLINE
  5
7D83
  8
0
 66
     1
 10
0.0
 20
0.0
 30
0.0
 70
     1
  0
VERTEX
  5
8340
  8
0
 10
5593.528369425782
 20
18532.46741443168
 30
0.0
  0
VERTEX
  5
8341
  8
0
 10
5593.528369425782
 20
18496.46741443168
 30
0.0
  0
VERTEX
  5
8342
  8
0
 10
5576.028369425781
 20
18496.46741443168
 30
0.0
  0
VERTEX
  5
8343
  8
0
 10
5576.028369425781
 20
18532.46741443168
 30
0.0
  0
SEQEND
  5
8483
  8
0
  0
POLYLINE
  5
7D84
  8
0
 66
     1
 10
0.0
 20
0.0
 30
0.0
 70
     1
  0
VERTEX
  5
8344
  8
0
 10
5593.528369425782
 20
18500.46741443168
 30
0.0
  0
VERTEX
  5
8345
  8
0
 10
5593.528369425782
 20
18536.46741443159
 30
0.0
  0
VERTEX
  5
8346
  8
0
 10
5608.528369425781
 20
18536.46741443159
 30
0.0
  0
VERTEX
  5
8347
  8
0
 10
5608.528369425781
 20
18500.46741443168
 30
0.0
  0
SEQEND
  5
8484
  8
0
  0
POLYLINE
  5
7D85
  8
0
 66
     1
 10
0.0
 20
0.0
 30
0.0
 70
     1
  0
VERTEX
  5
8348
  8
0
 10
5196.028381823555
 20
18532.46741443168
 30
0.0
  0
VERTEX
  5
8349
  8
0
 10
5196.028381823555
 20
18496.46741443168
 30
0.0
  0
VERTEX
  5
834A
  8
0
 10
5213.528381823555
 20
18496.46741443168
 30
0.0
  0
VERTEX
  5
834B
  8
0
 10
5213.528381823555
 20
18532.46741443168
 30
0.0
  0
SEQEND
  5
8485
  8
0
  0
POLYLINE
  5
7D86
  8
0
 66
     1
 10
0.0
 20
0.0
 30
0.0
 70
     1
  0
VERTEX
  5
834C
  8
0
 10
5228.528381823554
 20
18532.46741443168
 30
0.0
  0
VERTEX
  5
834D
  8
0
 10
5228.528381823554
 20
18496.46741443168
 30
0.0
  0
VERTEX
  5
834E
  8
0
 10
5246.028381823555
 20
18496.46741443168
 30
0.0
  0
VERTEX
  5
834F
  8
0
 10
5246.028381823555
 20
18532.46741443168
 30
0.0
  0
SEQEND
  5
8486
  8
0
  0
POLYLINE
  5
7D87
  8
0
 66
     1
 10
0.0
 20
0.0
 30
0.0
 70
     1
  0
VERTEX
  5
8350
  8
0
 10
5228.528381823554
 20
18500.46741443168
 30
0.0
  0
VERTEX
  5
8351
  8
0
 10
5228.528381823554
 20
18536.46741443159
 30
0.0
  0
VERTEX
  5
8352
  8
0
 10
5213.528381823555
 20
18536.46741443159
 30
0.0
  0
VERTEX
  5
8353
  8
0
 10
5213.528381823555
 20
18500.46741443168
 30
0.0
  0
SEQEND
  5
8487
  8
0
  0
POLYLINE
  5
7D88
  8
0
 66
     1
 10
0.0
 20
0.0
 30
0.0
 70
     1
  0
VERTEX
  5
8354
  8
0
 10
1456.999992619984
 20
18532.46741443168
 30
0.0
  0
VERTEX
  5
8355
  8
0
 10
1456.999992619984
 20
18496.46741443168
 30
0.0
  0
VERTEX
  5
8356
  8
0
 10
1439.499992619984
 20
18496.46741443168
 30
0.0
  0
VERTEX
  5
8357
  8
0
 10
1439.499992619984
 20
18532.46741443168
 30
0.0
  0
SEQEND
  5
8488
  8
0
  0
POLYLINE
  5
7D89
  8
0
 66
     1
 10
0.0
 20
0.0
 30
0.0
 70
     1
  0
VERTEX
  5
8358
  8
0
 10
1424.499992619985
 20
18532.46741443168
 30
0.0
  0
VERTEX
  5
8359
  8
0
 10
1424.499992619985
 20
18496.46741443168
 30
0.0
  0
VERTEX
  5
835A
  8
0
 10
1406.999992619984
 20
18496.46741443168
 30
0.0
  0
VERTEX
  5
835B
  8
0
 10
1406.999992619984
 20
18532.46741443168
 30
0.0
  0
SEQEND
  5
8489
  8
0
  0
POLYLINE
  5
7D8A
  8
0
 66
     1
 10
0.0
 20
0.0
 30
0.0
 70
     1
  0
VERTEX
  5
835C
  8
0
 10
1424.499992619985
 20
18500.46741443168
 30
0.0
  0
VERTEX
  5
835D
  8
0
 10
1424.499992619985
 20
18536.46741443159
 30
0.0
  0
VERTEX
  5
835E
  8
0
 10
1439.499992619984
 20
18536.46741443159
 30
0.0
  0
VERTEX
  5
835F
  8
0
 10
1439.499992619984
 20
18500.46741443168
 30
0.0
  0
SEQEND
  5
848A
  8
0
  0
POLYLINE
  5
7D8B
  8
0
 66
     1
 10
0.0
 20
0.0
 30
0.0
 70
     1
  0
VERTEX
  5
8360
  8
0
 10
1027.000005017758
 20
18532.46741443168
 30
0.0
  0
VERTEX
  5
8361
  8
0
 10
1027.000005017758
 20
18496.46741443168
 30
0.0
  0
VERTEX
  5
8362
  8
0
 10
1044.500005017758
 20
18496.46741443168
 30
0.0
  0
VERTEX
  5
8363
  8
0
 10
1044.500005017758
 20
18532.46741443168
 30
0.0
  0
SEQEND
  5
848B
  8
0
  0
POLYLINE
  5
7D8C
  8
0
 66
     1
 10
0.0
 20
0.0
 30
0.0
 70
     1
  0
VERTEX
  5
8364
  8
0
 10
1059.500005017757
 20
18532.46741443168
 30
0.0
  0
VERTEX
  5
8365
  8
0
 10
1059.500005017757
 20
18496.46741443168
 30
0.0
  0
VERTEX
  5
8366
  8
0
 10
1077.000005017758
 20
18496.46741443168
 30
0.0
  0
VERTEX
  5
8367
  8
0
 10
1077.000005017758
 20
18532.46741443168
 30
0.0
  0
SEQEND
  5
848C
  8
0
  0
POLYLINE
  5
7D8D
  8
0
 66
     1
 10
0.0
 20
0.0
 30
0.0
 70
     1
  0
VERTEX
  5
8368
  8
0
 10
1059.500005017757
 20
18500.46741443168
 30
0.0
  0
VERTEX
  5
8369
  8
0
 10
1059.500005017757
 20
18536.46741443159
 30
0.0
  0
VERTEX
  5
836A
  8
0
 10
1044.500005017758
 20
18536.46741443159
 30
0.0
  0
VERTEX
  5
836B
  8
0
 10
1044.500005017758
 20
18500.46741443168
 30
0.0
  0
SEQEND
  5
848D
  8
0
  0
POLYLINE
  5
7D8E
  8
0
 66
     1
 10
0.0
 20
0.0
 30
-32.0
  0
VERTEX
  5
836C
  8
0
 10
9767.44957715643
 20
18529.43405017768
 30
-32.0
  0
VERTEX
  5
836D
  8
0
 10
9767.44957715643
 20
18536.4674206305
 30
-32.0
  0
VERTEX
  5
836E
  8
0
 10
9787.44957715643
 20
18536.4674206305
 30
-32.0
  0
VERTEX
  5
836F
  8
0
 10
9787.44957715643
 20
18529.43405017768
 30
-32.0
  0
SEQEND
  5
848E
  8
0
  0
ARC
  5
7D8F
  8
0
 10
9777.449577156429
 20
18514.46742063059
 30
-32.0
 40
18.0
 50
56.2510114041168
 51
123.748988595888
  0
CIRCLE
  5
7D90
  8
0
 10
9777.449577156429
 20
18514.46742063059
 30
-32.0
 40
18.0
  0
POLYLINE
  5
7D91
  8
0
 66
     1
 10
0.0
 20
0.0
 30
-32.0
  0
VERTEX
  5
8370
  8
0
 10
10297.44957238805
 20
18529.43405017769
 30
-32.0
  0
VERTEX
  5
8371
  8
0
 10
10297.44957238805
 20
18536.46742063051
 30
-32.0
  0
VERTEX
  5
8372
  8
0
 10
10277.44957238805
 20
18536.46742063051
 30
-32.0
  0
VERTEX
  5
8373
  8
0
 10
10277.44957238805
 20
18529.43405017769
 30
-32.0
  0
SEQEND
  5
848F
  8
0
  0
ARC
  5
7D92
  8
0
 10
10287.44957238805
 20
18514.4674206306
 30
-32.0
 40
18.0
 50
56.2510114041168
 51
123.748988595888
  0
CIRCLE
  5
7D93
  8
0
 10
10287.44957238805
 20
18514.4674206306
 30
-32.0
 40
18.0
  0
DIMENSION
  5
7DC6
  8
0
  2
*D4
 10
9747.449574772243
 20
19095.13837937048
 30
0.0
 11
10032.44957477224
 21
19095.13837937048
 31
0.0
 70
    32
  3
STANDARD
 13
10317.44957477224
 23
19047.96742222863
 33
-32.0
 14
9747.449574772243
 24
19047.96742222863
 34
-32.0
1001
ACAD
1000
DSTYLE
1002
{
1070
   287
1070
     5
1070
   279
1070
     2
1002
}
  0
ENDSEC
  0
EOF
