  0
SECTION
  2
HEADER
  9
$ACADVER
  1
AC1032
  9
$ACADMAINTVER
 90
       55
  9
$DWGCODEPAGE
  3
ANSI_1252
  9
$LASTSAVEDBY
  1
ucom07
  9
$REQUIREDVERSIONS
160
                 0
  9
$INSBASE
 10
0.0
 20
0.0
 30
0.0
  9
$EXTMIN
 10
0.0
 20
0.0
 30
-32.0
  9
$EXTMAX
 10
12619.12569561671
 20
13173.37456033411
 30
0.0
  9
$LIMMIN
 10
0.0
 20
0.0
  9
$LIMMAX
 10
12.0
 20
9.0
  9
$ORTHOMODE
 70
     1
  9
$REGENMODE
 70
     1
  9
$FILLMODE
 70
     1
  9
$QTEXTMODE
 70
     0
  9
$MIRRTEXT
 70
     0
  9
$LTSCALE
 40
1.0
  9
$ATTMODE
 70
     1
  9
$TEXTSIZE
 40
0.2
  9
$TRACEWID
 40
0.05
  9
$TEXTSTYLE
  7
STANDARD
  9
$CLAYER
  8
0
  9
$CELTYPE
  6
ByLayer
  9
$CECOLOR
 62
   256
  9
$CELTSCALE
 40
1.0
  9
$DISPSILH
 70
     0
  9
$DIMSCALE
 40
1.0
  9
$DIMASZ
 40
0.18
  9
$DIMEXO
 40
0.0625
  9
$DIMDLI
 40
0.38
  9
$DIMRND
 40
0.0
  9
$DIMDLE
 40
0.0
  9
$DIMEXE
 40
0.18
  9
$DIMTP
 40
0.0
  9
$DIMTM
 40
0.0
  9
$DIMTXT
 40
0.18
  9
$DIMCEN
 40
0.09
  9
$DIMTSZ
 40
0.0
  9
$DIMTOL
 70
     0
  9
$DIMLIM
 70
     0
  9
$DIMTIH
 70
     1
  9
$DIMTOH
 70
     1
  9
$DIMSE1
 70
     0
  9
$DIMSE2
 70
     0
  9
$DIMTAD
 70
     0
  9
$DIMZIN
 70
     0
  9
$DIMBLK
  1

  9
$DIMASO
 70
     1
  9
$DIMSHO
 70
     1
  9
$DIMPOST
  1

  9
$DIMAPOST
  1

  9
$DIMALT
 70
     0
  9
$DIMALTD
 70
     2
  9
$DIMALTF
 40
25.4
  9
$DIMLFAC
 40
1.0
  9
$DIMTOFL
 70
     0
  9
$DIMTVP
 40
0.0
  9
$DIMTIX
 70
     0
  9
$DIMSOXD
 70
     0
  9
$DIMSAH
 70
     0
  9
$DIMBLK1
  1

  9
$DIMBLK2
  1

  9
$DIMSTYLE
  2
STANDARD
  9
$DIMCLRD
 70
     0
  9
$DIMCLRE
 70
     0
  9
$DIMCLRT
 70
     0
  9
$DIMTFAC
 40
1.0
  9
$DIMGAP
 40
0.09
  9
$DIMJUST
 70
     0
  9
$DIMSD1
 70
     0
  9
$DIMSD2
 70
     0
  9
$DIMTOLJ
 70
     1
  9
$DIMTZIN
 70
     0
  9
$DIMALTZ
 70
     0
  9
$DIMALTTZ
 70
     0
  9
$DIMUPT
 70
     0
  9
$DIMDEC
 70
     4
  9
$DIMTDEC
 70
     4
  9
$DIMALTU
 70
     2
  9
$DIMALTTD
 70
     2
  9
$DIMTXSTY
  7
STANDARD
  9
$DIMAUNIT
 70
     0
  9
$DIMADEC
 70
     0
  9
$DIMALTRND
 40
0.0
  9
$DIMAZIN
 70
     0
  9
$DIMDSEP
 70
    46
  9
$DIMATFIT
 70
     3
  9
$DIMFRAC
 70
     0
  9
$DIMLDRBLK
  1

  9
$DIMLUNIT
 70
     2
  9
$DIMLWD
 70
    -2
  9
$DIMLWE
 70
    -2
  9
$DIMTMOVE
 70
     2
  9
$DIMFXL
 40
1.0
  9
$DIMFXLON
 70
     0
  9
$DIMJOGANG
 40
0.7853981633974483
  9
$DIMTFILL
 70
     0
  9
$DIMTFILLCLR
 70
     0
  9
$DIMARCSYM
 70
     0
  9
$DIMLTYPE
  6

  9
$DIMLTEX1
  6

  9
$DIMLTEX2
  6

  9
$DIMTXTDIRECTION
 70
     0
  9
$LUNITS
 70
     2
  9
$LUPREC
 70
     4
  9
$SKETCHINC
 40
0.1
  9
$FILLETRAD
 40
0.0
  9
$AUNITS
 70
     0
  9
$AUPREC
 70
     0
  9
$MENU
  1
.
  9
$ELEVATION
 40
0.0
  9
$PELEVATION
 40
0.0
  9
$THICKNESS
 40
0.0
  9
$LIMCHECK
 70
     0
  9
$CHAMFERA
 40
0.0
  9
$CHAMFERB
 40
0.0
  9
$CHAMFERC
 40
0.0
  9
$CHAMFERD
 40
0.0
  9
$SKPOLY
 70
     0
  9
$TDCREATE
 40
2457352.61053022
  9
$TDUCREATE
 40
2457352.527196886
  9
$TDUPDATE
 40
2460453.374159965
  9
$TDUUPDATE
 40
2460453.290826632
  9
$TDINDWG
 40
0.1529534144
  9
$TDUSRTIMER
 40
0.0048430093
  9
$USRTIMER
 70
     1
  9
$ANGBASE
 50
0.0
  9
$ANGDIR
 70
     0
  9
$PDMODE
 70
     0
  9
$PDSIZE
 40
0.0
  9
$PLINEWID
 40
0.0
  9
$SPLFRAME
 70
     0
  9
$SPLINETYPE
 70
     6
  9
$SPLINESEGS
 70
     8
  9
$HANDSEED
  5
8520
  9
$SURFTAB1
 70
     6
  9
$SURFTAB2
 70
     6
  9
$SURFTYPE
 70
     6
  9
$SURFU
 70
     6
  9
$SURFV
 70
     6
  9
$UCSBASE
  2

  9
$UCSNAME
  2

  9
$UCSORG
 10
0.0
 20
0.0
 30
0.0
  9
$UCSXDIR
 10
1.0
 20
0.0
 30
0.0
  9
$UCSYDIR
 10
0.0
 20
1.0
 30
0.0
  9
$UCSORTHOREF
  2

  9
$UCSORTHOVIEW
 70
     0
  9
$UCSORGTOP
 10
0.0
 20
0.0
 30
0.0
  9
$UCSORGBOTTOM
 10
0.0
 20
0.0
 30
0.0
  9
$UCSORGLEFT
 10
0.0
 20
0.0
 30
0.0
  9
$UCSORGRIGHT
 10
0.0
 20
0.0
 30
0.0
  9
$UCSORGFRONT
 10
0.0
 20
0.0
 30
0.0
  9
$UCSORGBACK
 10
0.0
 20
0.0
 30
0.0
  9
$PUCSBASE
  2

  9
$PUCSNAME
  2

  9
$PUCSORG
 10
0.0
 20
0.0
 30
0.0
  9
$PUCSXDIR
 10
1.0
 20
0.0
 30
0.0
  9
$PUCSYDIR
 10
0.0
 20
1.0
 30
0.0
  9
$PUCSORTHOREF
  2

  9
$PUCSORTHOVIEW
 70
     0
  9
$PUCSORGTOP
 10
0.0
 20
0.0
 30
0.0
  9
$PUCSORGBOTTOM
 10
0.0
 20
0.0
 30
0.0
  9
$PUCSORGLEFT
 10
0.0
 20
0.0
 30
0.0
  9
$PUCSORGRIGHT
 10
0.0
 20
0.0
 30
0.0
  9
$PUCSORGFRONT
 10
0.0
 20
0.0
 30
0.0
  9
$PUCSORGBACK
 10
0.0
 20
0.0
 30
0.0
  9
$USERI1
 70
     0
  9
$USERI2
 70
     0
  9
$USERI3
 70
     0
  9
$USERI4
 70
     0
  9
$USERI5
 70
     0
  9
$USERR1
 40
0.0
  9
$USERR2
 40
0.0
  9
$USERR3
 40
0.0
  9
$USERR4
 40
0.0
  9
$USERR5
 40
0.0
  9
$WORLDVIEW
 70
     1
  9
$SHADEDGE
 70
     3
  9
$SHADEDIF
 70
    70
  9
$TILEMODE
 70
     1
  9
$MAXACTVP
 70
    64
  9
$PINSBASE
 10
0.0
 20
0.0
 30
0.0
  9
$PLIMCHECK
 70
     0
  9
$PEXTMIN
 10
0.0
 20
0.0
 30
0.0
  9
$PEXTMAX
 10
0.0
 20
0.0
 30
0.0
  9
$PLIMMIN
 10
0.0
 20
0.0
  9
$PLIMMAX
 10
0.0
 20
0.0
  9
$UNITMODE
 70
     0
  9
$VISRETAIN
 70
     1
  9
$PLINEGEN
 70
     0
  9
$PSLTSCALE
 70
     1
  9
$TREEDEPTH
 70
  3020
  9
$CMLSTYLE
  2
Standard
  9
$CMLJUST
 70
     0
  9
$CMLSCALE
 40
1.0
  9
$PROXYGRAPHICS
 70
     1
  9
$MEASUREMENT
 70
     0
  9
$CELWEIGHT
370
    -1
  9
$ENDCAPS
280
     0
  9
$JOINSTYLE
280
     0
  9
$LWDISPLAY
290
     0
  9
$INSUNITS
 70
     0
  9
$HYPERLINKBASE
  1

  9
$STYLESHEET
  1

  9
$XEDIT
290
     1
  9
$CEPSNTYPE
380
     0
  9
$PSTYLEMODE
290
     1
  9
$FINGERPRINTGUID
  2
{c8116d1a-3fe1-40cc-a1cb-f8f633052a20}
  9
$VERSIONGUID
  2
{FAEB1C32-E019-11D5-929B-00C0DF256EC4}
  9
$EXTNAMES
290
     1
  9
$PSVPSCALE
 40
0.0
  9
$OLESTARTUP
290
     0
  9
$SORTENTS
280
   127
  9
$INDEXCTL
280
     0
  9
$HIDETEXT
280
     1
  9
$XCLIPFRAME
280
     2
  9
$HALOGAP
280
     0
  9
$OBSCOLOR
 70
   257
  9
$OBSLTYPE
280
     0
  9
$INTERSECTIONDISPLAY
280
     0
  9
$INTERSECTIONCOLOR
 70
   257
  9
$DIMASSOC
280
     2
  9
$PROJECTNAME
  1

  9
$CAMERADISPLAY
290
     0
  9
$LENSLENGTH
 40
50.0
  9
$CAMERAHEIGHT
 40
0.0
  9
$STEPSPERSEC
 40
2.0
  9
$STEPSIZE
 40
6.0
  9
$3DDWFPREC
 40
2.0
  9
$PSOLWIDTH
 40
0.25
  9
$PSOLHEIGHT
 40
4.0
  9
$LOFTANG1
 40
1.570796326794897
  9
$LOFTANG2
 40
1.570796326794897
  9
$LOFTMAG1
 40
0.0
  9
$LOFTMAG2
 40
0.0
  9
$LOFTPARAM
 70
     7
  9
$LOFTNORMALS
280
     1
  9
$LATITUDE
 40
37.795
  9
$LONGITUDE
 40
-122.394
  9
$NORTHDIRECTION
 40
0.0
  9
$TIMEZONE
 70
 -8000
  9
$LIGHTGLYPHDISPLAY
280
     1
  9
$TILEMODELIGHTSYNCH
280
     1
  9
$SOLIDHIST
280
     0
  9
$SHOWHIST
280
     1
  9
$DWFFRAME
280
     2
  9
$DGNFRAME
280
     2
  9
$REALWORLDSCALE
290
     1
  9
$INTERFERECOLOR
 62
   256
  9
$CSHADOW
280
     0
  9
$SHADOWPLANELOCATION
 40
0.0
  0
ENDSEC
  0
SECTION
  2
CLASSES
  0
CLASS
  1
ACDBDICTIONARYWDFLT
  2
AcDbDictionaryWithDefault
  3
ObjectDBX Classes
 90
        0
 91
        3
280
     0
281
     0
  0
CLASS
  1
MATERIAL
  2
AcDbMaterial
  3
ObjectDBX Classes
 90
     1153
 91
        3
280
     0
281
     0
  0
CLASS
  1
SCALE
  2
AcDbScale
  3
ObjectDBX Classes
 90
     1153
 91
        3
280
     0
281
     0
  0
CLASS
  1
VISUALSTYLE
  2
AcDbVisualStyle
  3
ObjectDBX Classes
 90
     4095
 91
        3
280
     0
281
     0
  0
CLASS
  1
TABLESTYLE
  2
AcDbTableStyle
  3
ObjectDBX Classes
 90
     4095
 91
        3
280
     0
281
     0
  0
CLASS
  1
MLEADERSTYLE
  2
AcDbMLeaderStyle
  3
ACDB_MLEADERSTYLE_CLASS
 90
     4095
 91
        3
280
     0
281
     0
  0
CLASS
  1
DICTIONARYVAR
  2
AcDbDictionaryVar
  3
ObjectDBX Classes
 90
        0
 91
        3
280
     0
281
     0
  0
CLASS
  1
SUN
  2
AcDbSun
  3
SCENEOE
 90
     1153
 91
        3
280
     0
281
     0
  0
CLASS
  1
CELLSTYLEMAP
  2
AcDbCellStyleMap
  3
ObjectDBX Classes
 90
     1152
 91
        3
280
     0
281
     0
  0
ENDSEC
  0
SECTION
  2
TABLES
  0
TABLE
  2
VPORT
  5
8496
330
0
100
AcDbSymbolTable
 70
     1
  0
VPORT
  5
84AD
330
8496
100
AcDbSymbolTableRecord
100
AcDbViewportTableRecord
  2
*ACTIVE
 70
     0
 10
0.0
 20
0.0
 11
1.0
 21
1.0
 12
6309.562847808355
 22
6586.687280167053
 13
0.0
 23
0.0
 14
0.5
 24
0.5
 15
0.5
 25
0.5
 16
0.0
 26
0.0
 36
1.0
 17
0.0
 27
0.0
 37
0.0
 40
13436.84205154079
 41
1.944065484311051
 42
50.0
 43
0.0
 44
0.0
 50
0.0
 51
0.0
 71
    16
 72
  1000
 73
     1
 74
     3
 75
     0
 76
     0
 77
     0
 78
     0
281
     0
 65
     0
110
0.0
120
0.0
130
0.0
111
1.0
121
0.0
131
0.0
112
0.0
122
1.0
132
0.0
 79
     0
146
0.0
348
84E6
 60
     3
 61
     5
292
     1
282
     1
141
0.0
142
0.0
 63
   256
361
8509
  0
ENDTAB
  0
TABLE
  2
LTYPE
  5
8493
330
0
100
AcDbSymbolTable
 70
     1
  0
LTYPE
  5
84A1
330
8493
100
AcDbSymbolTableRecord
100
AcDbLinetypeTableRecord
  2
ByBlock
 70
     0
  3

 72
    65
 73
     0
 40
0.0
  0
LTYPE
  5
84A2
330
8493
100
AcDbSymbolTableRecord
100
AcDbLinetypeTableRecord
  2
ByLayer
 70
     0
  3

 72
    65
 73
     0
 40
0.0
  0
LTYPE
  5
84A3
330
8493
100
AcDbSymbolTableRecord
100
AcDbLinetypeTableRecord
  2
CONTINUOUS
 70
     0
  3
Solid line
 72
    65
 73
     0
 40
0.0
  0
ENDTAB
  0
TABLE
  2
LAYER
  5
8491
330
0
100
AcDbSymbolTable
 70
     2
  0
LAYER
  5
849E
330
8491
100
AcDbSymbolTableRecord
100
AcDbLayerTableRecord
  2
0
 70
     0
 62
     7
  6
CONTINUOUS
370
    -3
390
849D
347
84B3
348
0
  0
LAYER
  5
84B4
330
8491
100
AcDbSymbolTableRecord
100
AcDbLayerTableRecord
  2
DEFPOINTS
 70
     0
 62
     7
  6
CONTINUOUS
290
     0
370
    -3
390
849D
347
84B3
348
0
  0
ENDTAB
  0
TABLE
  2
STYLE
  5
8492
330
0
100
AcDbSymbolTable
 70
     2
  0
STYLE
  5
849F
330
8492
100
AcDbSymbolTableRecord
100
AcDbTextStyleTableRecord
  2
STANDARD
 70
     0
 40
0.0
 41
1.0
 50
0.0
 71
     0
 42
0.2
  3
txt
  4

  0
STYLE
  5
84B6
330
8492
100
AcDbSymbolTableRecord
100
AcDbTextStyleTableRecord
  2
STILE1
 70
     0
 40
0.0
 41
1.0
 50
0.0
 71
     0
 42
19.0
  3
ROMANS.SHX
  4

  0
ENDTAB
  0
TABLE
  2
VIEW
  5
8494
330
0
100
AcDbSymbolTable
 70
     0
  0
ENDTAB
  0
TABLE
  2
UCS
  5
8495
330
0
100
AcDbSymbolTable
 70
     0
  0
ENDTAB
  0
TABLE
  2
APPID
  5
8497
330
0
100
AcDbSymbolTable
 70
     3
  0
APPID
  5
84A0
330
8497
100
AcDbSymbolTableRecord
100
AcDbRegAppTableRecord
  2
ACAD
 70
     0
  0
APPID
  5
84B8
330
8497
100
AcDbSymbolTableRecord
100
AcDbRegAppTableRecord
  2
DCO15
 70
     0
  0
APPID
  5
84B9
330
8497
100
AcDbSymbolTableRecord
100
AcDbRegAppTableRecord
  2
PE_URL
 70
     0
  0
ENDTAB
  0
TABLE
  2
DIMSTYLE
  5
8498
330
0
100
AcDbSymbolTable
 70
     1
100
AcDbDimStyleTable
  0
DIMSTYLE
105
84BA
330
8498
100
AcDbSymbolTableRecord
100
AcDbDimStyleTableRecord
  2
STANDARD
 70
     0
178
     0
340
849F
  0
ENDTAB
  0
TABLE
  2
BLOCK_RECORD
  5
8490
330
0
100
AcDbSymbolTable
 70
     1
  0
BLOCK_RECORD
  5
84AA
102
{ACAD_XDICTIONARY
360
8500
102
}
330
8490
100
AcDbSymbolTableRecord
100
AcDbBlockTableRecord
  2
*Model_Space
340
84AB
 70
     0
280
     1
281
     0
  0
BLOCK_RECORD
  5
84A8
330
8490
100
AcDbSymbolTableRecord
100
AcDbBlockTableRecord
  2
*Paper_Space
340
84A9
 70
     0
280
     1
281
     0
  0
BLOCK_RECORD
  5
84BE
330
8490
100
AcDbSymbolTableRecord
100
AcDbBlockTableRecord
  2
*D0
340
0
 70
     0
280
     1
281
     0
  0
ENDTAB
  0
ENDSEC
  0
SECTION
  2
BLOCKS
  0
BLOCK
  5
84BB
330
84AA
100
AcDbEntity
  8
0
100
AcDbBlockBegin
  2
*Model_Space
 70
     0
 10
0.0
 20
0.0
 30
0.0
  3
*Model_Space
  1

  0
ENDBLK
  5
7669
330
84AA
100
AcDbEntity
  8
0
100
AcDbBlockEnd
  0
BLOCK
  5
84BC
330
84A8
100
AcDbEntity
 67
     1
  8
0
100
AcDbBlockBegin
  2
*Paper_Space
 70
     0
 10
0.0
 20
0.0
 30
0.0
  3
*Paper_Space
  1

  0
ENDBLK
  5
7665
330
84A8
100
AcDbEntity
 67
     1
  8
0
100
AcDbBlockEnd
  0
BLOCK
  5
84BD
330
84BE
100
AcDbEntity
  8
0
100
AcDbBlockBegin
  2
*D0
 70
     1
 10
0.0
 20
0.0
 30
0.0
  3
*D0
  1

  0
LINE
  5
7DCC
330
84BE
100
AcDbEntity
  8
0
 62
     0
370
    -2
100
AcDbLine
 10
10317.44957477224
 20
12327.68975743672
 30
0.0
 11
10317.44957477224
 21
12374.97821457857
 31
0.0
  0
LINE
  5
7DCD
330
84BE
100
AcDbEntity
  8
0
 62
     0
370
    -2
100
AcDbLine
 10
9747.449574772243
 20
12327.68975743672
 30
0.0
 11
9747.449574772243
 21
12374.97821457857
 31
0.0
  0
LINE
  5
7DCE
330
84BE
100
AcDbEntity
  8
0
 62
     0
370
    -2
100
AcDbLine
 10
10317.26957477224
 20
12374.79821457857
 30
0.0
 11
10033.09457477224
 21
12374.79821457857
 31
0.0
  0
LINE
  5
7DCF
330
84BE
100
AcDbEntity
  8
0
 62
     0
370
    -2
100
AcDbLine
 10
9747.629574772243
 20
12374.79821457857
 30
0.0
 11
10031.80457477224
 21
12374.79821457857
 31
0.0
  0
SOLID
  5
7DD0
330
84BE
100
AcDbEntity
  8
0
 62
     0
100
AcDbTrace
 10
10317.26957477224
 20
12374.76821457857
 30
0.0
 11
10317.26957477224
 21
12374.82821457857
 31
0.0
 12
10317.44957477224
 22
12374.79821457857
 32
0.0
 13
10317.44957477224
 23
12374.79821457857
 33
0.0
  0
SOLID
  5
7DD1
330
84BE
100
AcDbEntity
  8
0
 62
     0
100
AcDbTrace
 10
9747.629574772243
 20
12374.82821457857
 30
0.0
 11
9747.629574772243
 21
12374.76821457857
 31
0.0
 12
9747.449574772243
 22
12374.79821457857
 32
0.0
 13
9747.449574772243
 23
12374.79821457857
 33
0.0
  0
MTEXT
  5
7DD2
330
84BE
100
AcDbEntity
  8
0
 62
     0
100
AcDbMText
 10
10032.44957477224
 20
12374.79821457857
 30
0.0
 40
0.18
 41
0.0
 46
0.0
 71
     5
 72
     1
  1
\A1;570.0000
 73
     1
 44
1.0
  0
POINT
  5
7DD3
330
84BE
100
AcDbEntity
  8
DEFPOINTS
 62
     0
100
AcDbPoint
 10
10317.44957477224
 20
12327.62725743672
 30
0.0
  0
POINT
  5
7DD4
330
84BE
100
AcDbEntity
  8
DEFPOINTS
 62
     0
100
AcDbPoint
 10
9747.449574772243
 20
12327.62725743672
 30
0.0
  0
POINT
  5
7DD5
330
84BE
100
AcDbEntity
  8
DEFPOINTS
 62
     0
100
AcDbPoint
 10
9747.449574772243
 20
12374.79821457857
 30
0.0
  0
ENDBLK
  5
7DCB
330
84BE
100
AcDbEntity
  8
0
100
AcDbBlockEnd
  0
ENDSEC
  0
SECTION
  2
ENTITIES
  0
TEXT
  5
13CA
330
84AA
100
AcDbEntity
  8
0
100
AcDbText
 10
3173.906836621409
 20
432.2479967307316
 30
0.0
 40
125.0
  1
Questo disegno è di proprietà di Fantin S.r.l.   
  7
STILE1
 72
     1
 11
5596.525884240456
 21
432.2479967307316
 31
0.0
100
AcDbText
  0
TEXT
  5
13CB
330
84AA
100
AcDbEntity
  8
0
100
AcDbText
 10
3936.452026148206
 20
778.7322304035333
 30
0.0
 40
125.0
  1
Ali
  7
STILE1
 72
     1
 11
4032.062145195825
 21
778.7322304035333
 31
0.0
100
AcDbText
  0
LWPOLYLINE
  5
13CC
330
84AA
100
AcDbEntity
  8
0
  6
Continuous
100
AcDbPolyline
 90
       15
 70
     0
 43
0.0
 10
2006.841552732512
 20
299.9999999999997
 10
2006.841552732512
 20
687.661092123016
 10
2108.191094296053
 20
687.661092123016
 42
-0.316444976687396
 10
2159.138888884337
 20
659.4164767791514
 10
2259.932047529146
 20
489.3975694442633
 10
2262.700181747787
 20
489.3975694442633
 10
2262.700181747787
 20
687.661092123016
 10
2375.123982746154
 20
687.661092123016
 10
2375.123982746154
 20
299.9999999999997
 10
2292.601888021454
 20
299.9999999999997
 42
-0.312959769389874
 10
2241.654093428515
 20
328.2428927952421
 10
2122.033487958833
 20
521.5196397574612
 10
2119.268798828125
 20
521.5196397574612
 10
2119.268798828125
 20
299.9999999999997
 10
2006.841552732512
 20
299.9999999999997
  0
LWPOLYLINE
  5
13CD
330
84AA
100
AcDbEntity
  8
0
  6
Continuous
100
AcDbPolyline
 90
       15
 70
     0
 43
0.0
 10
1030.479098847136
 20
299.9999999999997
 10
1030.479098847136
 20
687.661092123016
 10
1131.828640410675
 20
687.661092123016
 42
-0.316444976687396
 10
1182.776435003616
 20
659.4164767791514
 10
1283.569593643768
 20
489.3975694442633
 10
1286.337727867066
 20
489.3975694442633
 10
1286.337727867066
 20
687.661092123016
 10
1398.761528860777
 20
687.661092123016
 10
1398.761528860777
 20
299.9999999999997
 10
1316.239434136078
 20
299.9999999999997
 42
-0.312959769389874
 10
1265.29163953848
 20
328.2428927952421
 10
1145.671034073457
 20
521.5196397574612
 10
1142.906344942748
 20
521.5196397574612
 10
1142.906344942748
 20
299.9999999999997
 10
1030.479098847136
 20
299.9999999999997
  0
LWPOLYLINE
  5
13CE
330
84AA
100
AcDbEntity
  8
0
  6
Continuous
100
AcDbPolyline
 90
        9
 70
     0
 43
0.0
 10
1783.103271485306
 20
687.6593695743937
 10
1783.103271485306
 20
596.8363172747192
 10
1666.80718316231
 20
596.8363172747192
 10
1666.80718316231
 20
299.9999999999997
 10
1547.737792972475
 20
299.9999999999997
 10
1547.737792972475
 20
596.8363172747192
 10
1434.204671224579
 20
596.8363172747192
 10
1434.204671224579
 20
687.6593695743937
 10
1783.103271485306
 20
687.6593695743937
  0
LWPOLYLINE
  5
13CF
330
84AA
100
AcDbEntity
  8
0
  6
Continuous
100
AcDbPolyline
 90
        4
 70
     1
 43
0.0
 10
1820.206949869171
 20
687.6593695743937
 10
1939.276340059005
 20
687.6593695743937
 10
1939.276340059005
 20
299.9999999999997
 10
1820.206949869171
 20
299.9999999999997
  0
LWPOLYLINE
  5
13D0
330
84AA
100
AcDbEntity
  8
0
  6
Continuous
100
AcDbPolyline
 90
       11
 70
     0
 43
0.0
 10
605.1458875834936
 20
687.6576470269353
 10
605.1458875834936
 20
598.4968532994384
 10
419.0693901898336
 20
598.4968532994384
 10
419.0693901898336
 20
521.52136230492
 10
549.2130398191512
 20
521.52136230492
 10
549.2130398191512
 20
438.4480523003727
 10
419.0693901898336
 20
438.4480523003727
 10
419.0693901898336
 20
299.9999999999997
 10
300.0
 20
299.9999999999997
 10
300.0
 20
687.6576470269353
 10
605.1458875834936
 20
687.6576470269353
  0
LWPOLYLINE
  5
13D1
330
84AA
100
AcDbEntity
  8
0
  6
Continuous
100
AcDbPolyline
 90
        5
 70
     0
 43
0.0
 10
791.2309977225952
 20
580.7787272136192
 10
824.458943684584
 20
466.6909450956151
 10
751.9104003906241
 20
466.6909450956151
 10
785.13834635727
 20
580.7787272136192
 10
791.2309977225952
 20
580.7787272136192
  0
LWPOLYLINE
  5
13D2
330
84AA
100
AcDbEntity
  8
0
  6
Continuous
100
AcDbPolyline
 90
       16
 70
     1
 43
0.0
 10
847.7226611692438
 20
383.6228027346076
 10
847.7226611692438
 20
383.6228027346076
 10
872.0839436817907
 20
299.9999999999997
 10
997.8006456140432
 20
299.9999999999997
 10
880.3917914489284
 20
652.7743326826017
 42
0.1089385125692126
 10
867.6499316329131
 20
680.4454704024826
 42
0.1589313772246072
 10
855.6541064428161
 20
687.7303423592817
 42
0.058673645385263
 10
839.4089355459447
 20
689.3216281465718
 10
839.4089355459447
 20
689.3216281465718
 10
744.1606580931694
 20
689.3216281465718
 42
0.058673645385263
 10
727.9154871962947
 20
687.7303423592817
 42
0.1589313772246072
 10
715.9196620061985
 20
680.4454704024826
 42
0.1089385125692126
 10
703.1778021901849
 20
652.7743326826017
 10
585.768948029726
 20
299.9999999999997
 10
704.8348931223154
 20
299.9999999999997
 10
728.6473931185901
 20
383.6228027346076
  0
TEXT
  5
13D3
330
84AA
100
AcDbEntity
  8
0
100
AcDbText
 10
3484.840736835664
 20
170.1637904425171
 30
0.0
 40
125.0
  1
This drawing is property of Fantin S.r.l. 
  7
STILE1
 72
     1
 11
5499.721689216617
 21
170.1637904425171
 31
0.0
100
AcDbText
  0
LWPOLYLINE
  5
13D4
330
84AA
100
AcDbEntity
  8
0
100
AcDbPolyline
 90
        2
 70
     0
 43
0.0
 10
2675.123982746154
 20
687.661092123016
 10
8025.371948238463
 20
687.6610921230168
  0
LWPOLYLINE
  5
13D5
330
84AA
100
AcDbEntity
  8
0
100
AcDbPolyline
 90
        4
 70
     1
 43
0.0
 10
0.0
 20
987.6576470269353
 10
8025.371948238463
 20
987.6576470269353
 10
8025.371948238463
 20
0.0
 10
0.0
 20
0.0
  0
LINE
  5
13D6
330
84AA
100
AcDbEntity
  8
0
100
AcDbLine
 10
2675.123982746154
 20
987.6576470269353
 30
0.0
 11
2675.123982746154
 21
0.0
 31
0.0
  0
LINE
  5
13D7
330
84AA
100
AcDbEntity
  8
0
100
AcDbLine
 10
5350.247965492308
 20
687.661092123016
 30
0.0
 11
5350.247965492308
 21
987.6576470269353
 31
0.0
  0
TEXT
  5
13D8
330
84AA
100
AcDbEntity
  8
0
100
AcDbText
 10
6252.7084966879
 20
778.7322304035333
 30
0.0
 40
125.0
  1
2024-06
  7
STILE1
 72
     1
 11
6687.604330021233
 21
778.7322304035333
 31
0.0
100
AcDbText
  0
LINE
  5
13D9
330
84AA
100
AcDbEntity
  8
0
100
AcDbLine
 10
8025.371948238463
 20
987.6576470269353
 30
0.0
 11
8025.371948238463
 21
0.0
 31
0.0
  0
LWPOLYLINE
  5
30C5
330
84AA
100
AcDbEntity
  8
0
100
AcDbPolyline
 90
        4
 70
     1
 43
0.0
 10
4591.676113691904
 20
2386.441590887562
 10
5383.676109400384
 20
2386.441590887562
 10
5383.676109400384
 20
2687.441581041609
 10
4591.676113691904
 20
2687.441581041609
  0
LWPOLYLINE
  5
30C6
330
84AA
100
AcDbEntity
  8
0
100
AcDbPolyline
 90
        4
 70
     1
 43
0.0
 10
3007.676122274977
 20
2386.441590887562
 10
3799.676117983443
 20
2386.441590887562
 10
3799.676117983443
 20
2687.441581041609
 10
3007.676122274977
 20
2687.441581041609
  0
LWPOLYLINE
  5
30C7
330
84AA
100
AcDbEntity
  8
0
100
AcDbPolyline
 90
        4
 70
     1
 43
0.0
 10
4591.676113691904
 20
2386.441590887562
 10
3799.676117983459
 20
2386.441590887562
 10
3799.676117983459
 20
2687.441581041609
 10
4591.676113691904
 20
2687.441581041609
  0
LWPOLYLINE
  5
30C8
330
84AA
100
AcDbEntity
  8
0
100
AcDbPolyline
 90
        4
 70
     1
 43
0.0
 10
2409.999992381541
 20
2386.441590887562
 10
1617.999996673074
 20
2386.441590887562
 10
1617.999996673074
 20
2687.441581041609
 10
2409.999992381541
 20
2687.441581041609
  0
LWPOLYLINE
  5
30C9
330
84AA
100
AcDbEntity
  8
0
100
AcDbPolyline
 90
        4
 70
     1
 43
0.0
 10
826.0000009646166
 20
2386.441590887562
 10
1617.99999667306
 20
2386.441590887562
 10
1617.99999667306
 20
2687.441581041609
 10
826.0000009646166
 20
2687.441581041609
  0
LWPOLYLINE
  5
30CA
330
84AA
100
AcDbEntity
  8
0
100
AcDbPolyline
 90
        4
 70
     1
 43
0.0
 10
826.0000009646166
 20
2687.441581041609
 10
1617.99999667306
 20
2687.441581041609
 10
1617.99999667306
 20
2837.941581041608
 10
826.0000009646166
 20
2837.941581041608
  0
LWPOLYLINE
  5
30CB
330
84AA
100
AcDbEntity
  8
0
100
AcDbPolyline
 90
        4
 70
     1
 43
0.0
 10
826.0000009646166
 20
2883.941584856311
 10
2409.999992381541
 20
2883.941584856311
 10
2409.999992381534
 20
2837.941581041608
 10
826.0000009646022
 20
2837.941581041608
  0
LWPOLYLINE
  5
30CC
330
84AA
100
AcDbEntity
  8
0
100
AcDbPolyline
 90
        4
 70
     1
 43
0.0
 10
812.0000023951206
 20
2386.441590887558
 10
826.0000009646166
 20
2386.441590887558
 10
826.0000009646166
 20
2883.941584856311
 10
812.0000023951206
 20
2883.941584856311
  0
LWPOLYLINE
  5
30CD
330
84AA
100
AcDbEntity
  8
0
100
AcDbPolyline
 90
        4
 70
     1
 43
0.0
 10
812.0000023951206
 20
2897.9415834258
 10
2423.999990951019
 20
2897.9415834258
 10
2423.999990951019
 20
2883.941584856311
 10
812.0000023951206
 20
2883.941584856311
  0
LWPOLYLINE
  5
30CE
330
84AA
100
AcDbEntity
  8
0
100
AcDbPolyline
 90
        4
 70
     1
 43
0.0
 10
2409.999992381534
 20
2687.441581041609
 10
1617.999996673074
 20
2687.441581041609
 10
1617.999996673074
 20
2837.941581041608
 10
2409.999992381534
 20
2837.941581041608
  0
LWPOLYLINE
  5
30CF
330
84AA
100
AcDbEntity
  8
0
100
AcDbPolyline
 90
        4
 70
     1
 43
0.0
 10
2423.999990951019
 20
2386.441590887558
 10
2409.999992381541
 20
2386.441590887558
 10
2409.999992381541
 20
2883.941584856311
 10
2423.999990951019
 20
2883.941584856311
  0
LWPOLYLINE
  5
30D0
330
84AA
100
AcDbEntity
  8
0
100
AcDbPolyline
 90
        4
 70
     1
 43
0.0
 10
812.0000023951206
 20
2372.441592318065
 10
2423.999990951019
 20
2372.441592318065
 10
2423.999990951019
 20
2386.441590887562
 10
812.0000023951206
 20
2386.441590887562
  0
LWPOLYLINE
  5
30D1
330
84AA
100
AcDbEntity
  8
0
100
AcDbPolyline
 90
        4
 70
     1
 43
0.0
 10
5397.676107969863
 20
2386.441590887558
 10
5383.676109400384
 20
2386.441590887558
 10
5383.676109400384
 20
2883.941584856311
 10
5397.676107969863
 20
2883.941584856311
  0
LWPOLYLINE
  5
30D2
330
84AA
100
AcDbEntity
  8
0
100
AcDbPolyline
 90
        4
 70
     1
 43
0.0
 10
4591.676113691904
 20
2687.441581041609
 10
3799.676117983459
 20
2687.441581041609
 10
3799.676117983459
 20
2837.941581041608
 10
4591.676113691904
 20
2837.941581041608
  0
LWPOLYLINE
  5
30D3
330
84AA
100
AcDbEntity
  8
0
100
AcDbPolyline
 90
        4
 70
     1
 43
0.0
 10
2993.676123705517
 20
2897.9415834258
 10
5397.676107969863
 20
2897.9415834258
 10
5397.676107969863
 20
2883.941584856311
 10
2993.676123705517
 20
2883.941584856311
  0
LWPOLYLINE
  5
30D4
330
84AA
100
AcDbEntity
  8
0
100
AcDbPolyline
 90
        4
 70
     1
 43
0.0
 10
2993.676123705517
 20
2386.441590887558
 10
3007.676122274984
 20
2386.441590887558
 10
3007.676122274984
 20
2883.941584856311
 10
2993.676123705517
 20
2883.941584856311
  0
LWPOLYLINE
  5
30D5
330
84AA
100
AcDbEntity
  8
0
100
AcDbPolyline
 90
        4
 70
     1
 43
0.0
 10
3007.676122274984
 20
2883.941584856311
 10
5383.676109400384
 20
2883.941584856311
 10
5383.676109400384
 20
2837.941581041608
 10
3007.676122274977
 20
2837.941581041608
  0
LWPOLYLINE
  5
30D6
330
84AA
100
AcDbEntity
  8
0
100
AcDbPolyline
 90
        4
 70
     1
 43
0.0
 10
3007.676122274984
 20
2687.441581041609
 10
3799.676117983443
 20
2687.441581041609
 10
3799.676117983443
 20
2837.941581041608
 10
3007.676122274984
 20
2837.941581041608
  0
LWPOLYLINE
  5
30D7
330
84AA
100
AcDbEntity
  8
0
100
AcDbPolyline
 90
        4
 70
     1
 43
0.0
 10
5383.676109400384
 20
2687.441581041609
 10
4591.676113691904
 20
2687.441581041609
 10
4591.676113691904
 20
2837.941581041608
 10
5383.676109400384
 20
2837.941581041608
  0
LWPOLYLINE
  5
30D8
330
84AA
100
AcDbEntity
  8
0
100
AcDbPolyline
 90
        4
 70
     1
 43
0.0
 10
2993.676123705517
 20
2372.441592318065
 10
5397.676107969863
 20
2372.441592318065
 10
5397.676107969863
 20
2386.441590887558
 10
2993.676123705517
 20
2386.441590887558
  0
LWPOLYLINE
  5
30ED
330
84AA
100
AcDbEntity
  8
0
100
AcDbPolyline
 90
        4
 70
     1
 43
0.0
 10
2993.676123705517
 20
4372.441592318061
 10
5397.676107969863
 20
4372.441592318061
 10
5397.676107969863
 20
4386.44159088755
 10
2993.676123705517
 20
4386.44159088755
  0
LWPOLYLINE
  5
30EE
330
84AA
100
AcDbEntity
  8
0
100
AcDbPolyline
 90
        4
 70
     1
 43
0.0
 10
5383.676109400384
 20
4386.4415810416
 10
4591.676113691904
 20
4386.4415810416
 10
4591.676113691904
 20
4536.941581041599
 10
5383.676109400384
 20
4536.941581041599
  0
LWPOLYLINE
  5
30EF
330
84AA
100
AcDbEntity
  8
0
100
AcDbPolyline
 90
        4
 70
     1
 43
0.0
 10
5383.676109400384
 20
4536.941581041599
 10
4591.676113691904
 20
4536.941581041599
 10
4591.676113691904
 20
4687.441581041599
 10
5383.676109400384
 20
4687.441581041599
  0
LWPOLYLINE
  5
30F0
330
84AA
100
AcDbEntity
  8
0
100
AcDbPolyline
 90
        4
 70
     1
 43
0.0
 10
5383.676109400384
 20
4687.441581041599
 10
4591.676113691904
 20
4687.441581041599
 10
4591.676113691904
 20
4837.941581041599
 10
5383.676109400384
 20
4837.941581041599
  0
LWPOLYLINE
  5
30F1
330
84AA
100
AcDbEntity
  8
0
100
AcDbPolyline
 90
        4
 70
     1
 43
0.0
 10
3007.676122274984
 20
4386.4415810416
 10
3799.676117983443
 20
4386.4415810416
 10
3799.676117983443
 20
4536.941581041599
 10
3007.676122274984
 20
4536.941581041599
  0
LWPOLYLINE
  5
30F2
330
84AA
100
AcDbEntity
  8
0
100
AcDbPolyline
 90
        4
 70
     1
 43
0.0
 10
3007.676122274984
 20
4536.941581041599
 10
3799.676117983443
 20
4536.941581041599
 10
3799.676117983443
 20
4687.441581041599
 10
3007.676122274984
 20
4687.441581041599
  0
LWPOLYLINE
  5
30F3
330
84AA
100
AcDbEntity
  8
0
100
AcDbPolyline
 90
        4
 70
     1
 43
0.0
 10
3007.676122274984
 20
4687.441581041599
 10
3799.676117983443
 20
4687.441581041599
 10
3799.676117983443
 20
4837.941581041599
 10
3007.676122274984
 20
4837.941581041599
  0
LWPOLYLINE
  5
30F4
330
84AA
100
AcDbEntity
  8
0
100
AcDbPolyline
 90
        4
 70
     1
 43
0.0
 10
3007.676122274984
 20
4883.941584856302
 10
5383.676109400384
 20
4883.941584856302
 10
5383.676109400384
 20
4837.941581041599
 10
3007.676122274977
 20
4837.941581041599
  0
LWPOLYLINE
  5
30F5
330
84AA
100
AcDbEntity
  8
0
100
AcDbPolyline
 90
        4
 70
     1
 43
0.0
 10
2993.676123705517
 20
4386.44159088755
 10
3007.676122274984
 20
4386.44159088755
 10
3007.676122274984
 20
4883.941584856302
 10
2993.676123705517
 20
4883.941584856302
  0
LWPOLYLINE
  5
30F6
330
84AA
100
AcDbEntity
  8
0
100
AcDbPolyline
 90
        4
 70
     1
 43
0.0
 10
2993.676123705517
 20
4897.941583425796
 10
5397.676107969863
 20
4897.941583425796
 10
5397.676107969863
 20
4883.941584856302
 10
2993.676123705517
 20
4883.941584856302
  0
LWPOLYLINE
  5
30F7
330
84AA
100
AcDbEntity
  8
0
100
AcDbPolyline
 90
        4
 70
     1
 43
0.0
 10
4591.676113691904
 20
4687.441581041599
 10
3799.676117983459
 20
4687.441581041599
 10
3799.676117983459
 20
4837.941581041599
 10
4591.676113691904
 20
4837.941581041599
  0
LWPOLYLINE
  5
30F8
330
84AA
100
AcDbEntity
  8
0
100
AcDbPolyline
 90
        4
 70
     1
 43
0.0
 10
4591.676113691904
 20
4536.941581041599
 10
3799.676117983459
 20
4536.941581041599
 10
3799.676117983459
 20
4687.441581041599
 10
4591.676113691904
 20
4687.441581041599
  0
LWPOLYLINE
  5
30F9
330
84AA
100
AcDbEntity
  8
0
100
AcDbPolyline
 90
        4
 70
     1
 43
0.0
 10
4591.676113691904
 20
4386.4415810416
 10
3799.676117983459
 20
4386.4415810416
 10
3799.676117983459
 20
4536.941581041599
 10
4591.676113691904
 20
4536.941581041599
  0
LWPOLYLINE
  5
30FA
330
84AA
100
AcDbEntity
  8
0
100
AcDbPolyline
 90
        4
 70
     1
 43
0.0
 10
5397.676107969863
 20
4386.44159088755
 10
5383.676109400384
 20
4386.44159088755
 10
5383.676109400384
 20
4883.941584856302
 10
5397.676107969863
 20
4883.941584856302
  0
LWPOLYLINE
  5
30FB
330
84AA
100
AcDbEntity
  8
0
100
AcDbPolyline
 90
        4
 70
     1
 43
0.0
 10
812.0000023951206
 20
4372.441592318061
 10
2423.999990951019
 20
4372.441592318061
 10
2423.999990951019
 20
4386.441590887556
 10
812.0000023951206
 20
4386.441590887556
  0
LWPOLYLINE
  5
30FC
330
84AA
100
AcDbEntity
  8
0
100
AcDbPolyline
 90
        4
 70
     1
 43
0.0
 10
2423.999990951019
 20
4386.44159088755
 10
2409.999992381541
 20
4386.44159088755
 10
2409.999992381541
 20
4883.941584856302
 10
2423.999990951019
 20
4883.941584856302
  0
LWPOLYLINE
  5
30FD
330
84AA
100
AcDbEntity
  8
0
100
AcDbPolyline
 90
        4
 70
     1
 43
0.0
 10
2409.999992381534
 20
4386.4415810416
 10
1617.999996673074
 20
4386.4415810416
 10
1617.999996673074
 20
4536.941581041599
 10
2409.999992381534
 20
4536.941581041599
  0
LWPOLYLINE
  5
30FE
330
84AA
100
AcDbEntity
  8
0
100
AcDbPolyline
 90
        4
 70
     1
 43
0.0
 10
2409.999992381534
 20
4536.941581041599
 10
1617.999996673074
 20
4536.941581041599
 10
1617.999996673074
 20
4687.441581041599
 10
2409.999992381534
 20
4687.441581041599
  0
LWPOLYLINE
  5
30FF
330
84AA
100
AcDbEntity
  8
0
100
AcDbPolyline
 90
        4
 70
     1
 43
0.0
 10
2409.999992381534
 20
4687.441581041599
 10
1617.999996673074
 20
4687.441581041599
 10
1617.999996673074
 20
4837.941581041599
 10
2409.999992381534
 20
4837.941581041599
  0
LWPOLYLINE
  5
3100
330
84AA
100
AcDbEntity
  8
0
100
AcDbPolyline
 90
        4
 70
     1
 43
0.0
 10
812.0000023951206
 20
4897.941583425796
 10
2423.999990951019
 20
4897.941583425796
 10
2423.999990951019
 20
4883.941584856302
 10
812.0000023951206
 20
4883.941584856302
  0
LWPOLYLINE
  5
3101
330
84AA
100
AcDbEntity
  8
0
100
AcDbPolyline
 90
        4
 70
     1
 43
0.0
 10
812.0000023951206
 20
4386.44159088755
 10
826.0000009646166
 20
4386.44159088755
 10
826.0000009646166
 20
4883.941584856302
 10
812.0000023951206
 20
4883.941584856302
  0
LWPOLYLINE
  5
3102
330
84AA
100
AcDbEntity
  8
0
100
AcDbPolyline
 90
        4
 70
     1
 43
0.0
 10
826.0000009646166
 20
4883.941584856302
 10
2409.999992381541
 20
4883.941584856302
 10
2409.999992381534
 20
4837.941581041599
 10
826.0000009646022
 20
4837.941581041599
  0
LWPOLYLINE
  5
3103
330
84AA
100
AcDbEntity
  8
0
100
AcDbPolyline
 90
        4
 70
     1
 43
0.0
 10
826.0000009646166
 20
4687.441581041599
 10
1617.99999667306
 20
4687.441581041599
 10
1617.99999667306
 20
4837.941581041599
 10
826.0000009646166
 20
4837.941581041599
  0
LWPOLYLINE
  5
3104
330
84AA
100
AcDbEntity
  8
0
100
AcDbPolyline
 90
        4
 70
     1
 43
0.0
 10
826.0000009646166
 20
4536.941581041599
 10
1617.99999667306
 20
4536.941581041599
 10
1617.99999667306
 20
4687.441581041599
 10
826.0000009646166
 20
4687.441581041599
  0
LWPOLYLINE
  5
3105
330
84AA
100
AcDbEntity
  8
0
100
AcDbPolyline
 90
        4
 70
     1
 43
0.0
 10
826.0000009646166
 20
4386.4415810416
 10
1617.99999667306
 20
4386.4415810416
 10
1617.99999667306
 20
4536.941581041599
 10
826.0000009646166
 20
4536.941581041599
  0
LWPOLYLINE
  5
3106
330
84AA
100
AcDbEntity
  8
0
100
AcDbPolyline
 90
        4
 70
     1
 43
0.0
 10
5200.676110473255
 20
2372.441592318065
 10
5170.676110473257
 20
2372.441592318065
 10
5170.676110473257
 20
2222.441592318066
 10
5200.676110473255
 20
2222.441592318066
  0
LWPOLYLINE
  5
3107
330
84AA
100
AcDbEntity
  8
0
100
AcDbPolyline
 90
        4
 70
     1
 43
0.0
 10
3190.676121202117
 20
2372.441592318065
 10
3220.676121202116
 20
2372.441592318065
 10
3220.676121202116
 20
2222.441592318066
 10
3190.676121202117
 20
2222.441592318066
  0
LWPOLYLINE
  5
3108
330
84AA
100
AcDbEntity
  8
0
100
AcDbPolyline
 90
        4
 70
     1
 43
0.0
 10
2226.999993454409
 20
2372.441592318065
 10
2196.999993454413
 20
2372.441592318065
 10
2196.999993454413
 20
2222.441592318069
 10
2226.999993454409
 20
2222.441592318069
  0
LWPOLYLINE
  5
3109
330
84AA
100
AcDbEntity
  8
0
100
AcDbPolyline
 90
        4
 70
     1
 43
0.0
 10
1008.999999891725
 20
2372.441592318065
 10
1038.999999891725
 20
2372.441592318065
 10
1038.999999891725
 20
2222.441592318069
 10
1008.999999891725
 20
2222.441592318069
  0
LWPOLYLINE
  5
310E
330
84AA
100
AcDbEntity
  8
0
100
AcDbPolyline
 90
        4
 70
     1
 43
0.0
 10
5200.676110473255
 20
4372.441592318064
 10
5170.676110473257
 20
4372.441592318064
 10
5170.676110473257
 20
4222.441592318062
 10
5200.676110473255
 20
4222.441592318062
  0
LWPOLYLINE
  5
310F
330
84AA
100
AcDbEntity
  8
0
100
AcDbPolyline
 90
        4
 70
     1
 43
0.0
 10
3190.676121202117
 20
4372.441592318064
 10
3220.676121202116
 20
4372.441592318064
 10
3220.676121202116
 20
4222.441592318062
 10
3190.676121202117
 20
4222.441592318062
  0
LWPOLYLINE
  5
3110
330
84AA
100
AcDbEntity
  8
0
100
AcDbPolyline
 90
        4
 70
     1
 43
0.0
 10
2226.999993454409
 20
4372.441592318064
 10
2196.999993454413
 20
4372.441592318064
 10
2196.999993454413
 20
4222.441592318062
 10
2226.999993454409
 20
4222.441592318062
  0
LWPOLYLINE
  5
3111
330
84AA
100
AcDbEntity
  8
0
100
AcDbPolyline
 90
        4
 70
     1
 43
0.0
 10
1008.999999891725
 20
4372.441592318064
 10
1038.999999891725
 20
4372.441592318064
 10
1038.999999891725
 20
4222.441592318062
 10
1008.999999891725
 20
4222.441592318062
  0
LWPOLYLINE
  5
3130
330
84AA
100
AcDbEntity
  8
0
100
AcDbPolyline
 90
        4
 70
     1
 43
0.0
 10
9747.449574772234
 20
2899.941585616279
 10
10197.44956761967
 20
2899.941585616279
 10
10197.44956761967
 20
2885.94158704678
 10
9747.449574772234
 20
2885.94158704678
  0
LWPOLYLINE
  5
3131
330
84AA
100
AcDbEntity
  8
0
100
AcDbPolyline
 90
        4
 70
     1
 43
0.0
 10
10197.44956761967
 20
2388.441593078041
 10
9747.449574772234
 20
2388.441593078041
 10
9747.449574772234
 20
2373.44159341331
 10
10197.44956761967
 20
2373.44159341331
  0
LWPOLYLINE
  5
3132
330
84AA
100
AcDbEntity
  8
0
100
AcDbPolyline
 90
        4
 70
     1
 43
0.0
 10
9747.449574772234
 20
2885.94158704678
 10
10197.44956761967
 20
2885.94158704678
 10
10197.44956761967
 20
2388.441593078041
 10
9747.449574772234
 20
2388.441593078041
  0
LWPOLYLINE
  5
3133
330
84AA
100
AcDbEntity
  8
0
100
AcDbPolyline
 90
        4
 70
     1
 43
0.0
 10
9747.449574772234
 20
4884.941585951545
 10
10197.44956761967
 20
4884.941585951545
 10
10197.44956761967
 20
4387.441591982794
 10
9747.449574772234
 20
4387.441591982794
  0
LWPOLYLINE
  5
3134
330
84AA
100
AcDbEntity
  8
0
100
AcDbPolyline
 90
        4
 70
     1
 43
0.0
 10
10197.44956761967
 20
4387.441591982794
 10
9747.449574772234
 20
4387.441591982794
 10
9747.449574772234
 20
4372.441592318066
 10
10197.44956761967
 20
4372.441592318066
  0
LWPOLYLINE
  5
3135
330
84AA
100
AcDbEntity
  8
0
100
AcDbPolyline
 90
        4
 70
     1
 43
0.0
 10
9747.449574772234
 20
4898.941584521037
 10
10197.44956761967
 20
4898.941584521037
 10
10197.44956761967
 20
4884.941585951545
 10
9747.449574772234
 20
4884.941585951545
  0
LWPOLYLINE
  5
3136
330
84AA
100
AcDbEntity
  8
0
100
AcDbPolyline
 90
        4
 70
     1
 43
0.0
 10
9777.449572268843
 20
4372.441592318066
 10
9807.449572268833
 20
4372.441592318066
 10
9807.449572268833
 20
4222.441592318075
 10
9777.449572268843
 20
4222.441592318075
  0
LWPOLYLINE
  5
3137
330
84AA
100
AcDbEntity
  8
0
100
AcDbPolyline
 90
        4
 70
     1
 43
0.0
 10
10167.44957012306
 20
4372.441592318066
 10
10137.44957012306
 20
4372.441592318066
 10
10137.44957012306
 20
4222.441592318075
 10
10167.44957012306
 20
4222.441592318075
  0
LWPOLYLINE
  5
313A
330
84AA
100
AcDbEntity
  8
0
100
AcDbPolyline
 90
        4
 70
     1
 43
0.0
 10
10167.44957012306
 20
2373.44159341331
 10
10137.44957012306
 20
2373.44159341331
 10
10137.44957012306
 20
2223.441593413309
 10
10167.44957012306
 20
2223.441593413309
  0
LWPOLYLINE
  5
313B
330
84AA
100
AcDbEntity
  8
0
100
AcDbPolyline
 90
        4
 70
     1
 43
0.0
 10
9777.449572268843
 20
2373.44159341331
 10
9807.449572268833
 20
2373.44159341331
 10
9807.449572268833
 20
2223.441593413309
 10
9777.449572268843
 20
2223.441593413309
  0
LWPOLYLINE
  5
322E
330
84AA
100
AcDbEntity
  8
0
100
AcDbPolyline
 90
        4
 70
     1
 43
0.0
 10
1461.999992619985
 20
11830.12725583854
 10
1022.000005017743
 20
11830.12725583854
 10
1022.000005017743
 20
11816.12724963968
 10
1461.999992619985
 20
11816.12724963968
  0
LWPOLYLINE
  5
322F
330
84AA
100
AcDbEntity
  8
0
100
AcDbPolyline
 90
        4
 70
     1
 43
0.0
 10
1461.999992619985
 20
12327.6272498073
 10
1022.000005017743
 20
12327.6272498073
 10
1022.000005017743
 20
12341.62725600619
 10
1461.999992619985
 20
12341.62725600619
  0
LWPOLYLINE
  5
3230
330
84AA
100
AcDbEntity
  8
0
100
AcDbPolyline
 90
        4
 70
     1
 43
0.0
 10
1022.000005017743
 20
11830.12725583854
 10
1036.000003587235
 20
11830.12725583854
 10
1036.000003587235
 20
12327.6272498073
 10
1022.000005017743
 20
12327.6272498073
  0
LWPOLYLINE
  5
3232
330
84AA
100
AcDbEntity
  8
0
100
AcDbPolyline
 90
        4
 70
     1
 43
0.0
 10
1036.000003587235
 20
11830.12724599261
 10
1447.999994050496
 20
11830.12724599261
 10
1447.999994050496
 20
11980.62724599261
 10
1036.000003587235
 20
11980.62724599261
  0
LWPOLYLINE
  5
3233
330
84AA
100
AcDbEntity
  8
0
100
AcDbPolyline
 90
        4
 70
     1
 43
0.0
 10
1036.000003587235
 20
11980.62724599261
 10
1447.999994050496
 20
11980.62724599261
 10
1447.999994050496
 20
12131.12724599261
 10
1036.000003587235
 20
12131.12724599261
  0
LWPOLYLINE
  5
3234
330
84AA
100
AcDbEntity
  8
0
100
AcDbPolyline
 90
        4
 70
     1
 43
0.0
 10
1036.000003587235
 20
12131.12724599261
 10
1447.999994050496
 20
12131.12724599261
 10
1447.999994050496
 20
12281.62724599261
 10
1036.000003587235
 20
12281.62724599261
  0
LWPOLYLINE
  5
3235
330
84AA
100
AcDbEntity
  8
0
100
AcDbPolyline
 90
        4
 70
     1
 43
0.0
 10
1036.000003587235
 20
12327.6272498073
 10
1447.999994050496
 20
12327.6272498073
 10
1447.999994050496
 20
12281.62724599261
 10
1036.000003587224
 20
12281.62724599261
  0
LWPOLYLINE
  5
3236
330
84AA
100
AcDbEntity
  8
0
100
AcDbPolyline
 90
        4
 70
     1
 43
0.0
 10
1461.999992619995
 20
11830.12725583854
 10
1447.999994050496
 20
11830.12725583854
 10
1447.999994050496
 20
12327.6272498073
 10
1461.999992619985
 20
12327.6272498073
  0
LWPOLYLINE
  5
3239
330
84AA
100
AcDbEntity
  8
0
100
AcDbPolyline
 90
        4
 70
     1
 43
0.0
 10
5631.028369425782
 20
11830.12725583854
 10
5617.028370856306
 20
11830.12725583854
 10
5617.028370856306
 20
12327.6272498073
 10
5631.028369425782
 20
12327.6272498073
  0
LWPOLYLINE
  5
323A
330
84AA
100
AcDbEntity
  8
0
100
AcDbPolyline
 90
        4
 70
     1
 43
0.0
 10
5205.02838039302
 20
12327.6272498073
 10
5617.028370856306
 20
12327.6272498073
 10
5617.028370856291
 20
12281.62724599261
 10
5205.02838039302
 20
12281.62724599261
  0
LWPOLYLINE
  5
323B
330
84AA
100
AcDbEntity
  8
0
100
AcDbPolyline
 90
        4
 70
     1
 43
0.0
 10
5205.02838039302
 20
12131.12724599261
 10
5617.028370856291
 20
12131.12724599261
 10
5617.028370856291
 20
12281.62724599261
 10
5205.02838039302
 20
12281.62724599261
  0
LWPOLYLINE
  5
323D
330
84AA
100
AcDbEntity
  8
0
100
AcDbPolyline
 90
        4
 70
     1
 43
0.0
 10
5191.028381823554
 20
11830.12725583854
 10
5205.02838039302
 20
11830.12725583854
 10
5205.02838039302
 20
12327.6272498073
 10
5191.028381823554
 20
12327.6272498073
  0
LWPOLYLINE
  5
323E
330
84AA
100
AcDbEntity
  8
0
100
AcDbPolyline
 90
        4
 70
     1
 43
0.0
 10
5631.028369425782
 20
12327.6272498073
 10
5191.028381823554
 20
12327.6272498073
 10
5191.028381823554
 20
12341.62725600619
 10
5631.028369425782
 20
12341.62725600619
  0
LWPOLYLINE
  5
323F
330
84AA
100
AcDbEntity
  8
0
100
AcDbPolyline
 90
        4
 70
     1
 43
0.0
 10
5631.028369425782
 20
11830.12725583854
 10
5191.028381823554
 20
11830.12725583854
 10
5191.028381823554
 20
11816.12724963968
 10
5631.028369425782
 20
11816.12724963968
  0
LWPOLYLINE
  5
3240
330
84AA
100
AcDbEntity
  8
0
100
AcDbPolyline
 90
        4
 70
     1
 43
0.0
 38
-32.0
 10
9747.449574772243
 20
12327.62725743672
 10
10317.44957477224
 20
12327.62725743672
 10
10317.44957477224
 20
11831.12725550329
 10
9747.449574772243
 20
11831.12725550329
  0
LWPOLYLINE
  5
3241
330
84AA
100
AcDbEntity
  8
0
100
AcDbPolyline
 90
        4
 70
     1
 43
0.0
 38
-32.0
 10
10317.44957477224
 20
11831.12725550329
 10
9747.449574772243
 20
11831.12725550329
 10
9747.449574772243
 20
11816.12725583858
 10
10317.44957477224
 20
11816.12725583858
  0
LWPOLYLINE
  5
3242
330
84AA
100
AcDbEntity
  8
0
100
AcDbPolyline
 90
        4
 70
     1
 43
0.0
 10
9747.449574772243
 20
12341.62725600619
 10
10317.44957477224
 20
12341.62725600619
 10
10317.44957477224
 20
12327.62725743672
 10
9747.449574772243
 20
12327.62725743672
  0
LWPOLYLINE
  5
3247
330
84AA
100
AcDbEntity
  8
0
100
AcDbPolyline
 90
        4
 70
     1
 43
0.0
 10
12619.12569561671
 20
13173.37456033411
 10
0.0000000000030974
 20
13173.37456033411
 10
0.0000000000030974
 20
10985.37995260587
 10
12619.12569561671
 20
10985.37995260587
  0
LWPOLYLINE
  5
3248
330
84AA
100
AcDbEntity
  8
0
100
AcDbPolyline
 90
        4
 70
     1
 43
0.0
 10
1022.000005017743
 20
9491.225520919908
 10
1841.999997865189
 20
9491.225520919908
 10
1841.999997865189
 20
9477.22552235042
 10
1022.000005017743
 20
9477.22552235042
  0
LWPOLYLINE
  5
3249
330
84AA
100
AcDbEntity
  8
0
100
AcDbPolyline
 90
        4
 70
     1
 43
0.0
 10
1827.999999295685
 20
9477.22552235042
 10
1841.999997865189
 20
9477.22552235042
 10
1841.999997865189
 20
8979.725528381668
 10
1827.999999295685
 20
8979.725528381668
  0
LWPOLYLINE
  5
324A
330
84AA
100
AcDbEntity
  8
0
100
AcDbPolyline
 90
        4
 70
     1
 43
0.0
 10
1841.999997865189
 20
8979.725528381668
 10
1022.000005017743
 20
8979.725528381668
 10
1022.000005017743
 20
8964.725528716928
 10
1841.999997865189
 20
8964.725528716928
  0
LWPOLYLINE
  5
324B
330
84AA
100
AcDbEntity
  8
0
100
AcDbPolyline
 90
        4
 70
     1
 43
0.0
 10
1022.000005017743
 20
8979.72552838166
 10
1036.000003587224
 20
8979.72552838166
 10
1036.000003587224
 20
9477.22552235042
 10
1022.000005017743
 20
9477.22552235042
  0
LWPOLYLINE
  5
324C
330
84AA
100
AcDbEntity
  8
0
100
AcDbPolyline
 90
        4
 70
     1
 43
0.0
 10
1036.000003587224
 20
9477.22552235042
 10
1827.999999295685
 20
9477.22552235042
 10
1827.999999295685
 20
9431.22551853571
 10
1036.000003587224
 20
9431.22551853571
  0
LWPOLYLINE
  5
324E
330
84AA
100
AcDbEntity
  8
0
100
AcDbPolyline
 90
        4
 70
     1
 43
0.0
 10
1036.000003587224
 20
9280.72551853571
 10
1827.999999295685
 20
9280.72551853571
 10
1827.999999295685
 20
9431.22551853571
 10
1036.000003587224
 20
9431.22551853571
  0
LWPOLYLINE
  5
324F
330
84AA
100
AcDbEntity
  8
0
100
AcDbPolyline
 90
        4
 70
     1
 43
0.0
 10
1036.000003587224
 20
9130.22551853571
 10
1827.999999295685
 20
9130.22551853571
 10
1827.999999295685
 20
9280.72551853571
 10
1036.000003587224
 20
9280.72551853571
  0
LWPOLYLINE
  5
3250
330
84AA
100
AcDbEntity
  8
0
100
AcDbPolyline
 90
        4
 70
     1
 43
0.0
 10
1036.000003587224
 20
8979.72551853571
 10
1827.999999295685
 20
8979.72551853571
 10
1827.999999295685
 20
9130.22551853571
 10
1036.000003587224
 20
9130.22551853571
  0
LWPOLYLINE
  5
3251
330
84AA
100
AcDbEntity
  8
0
100
AcDbPolyline
 90
        4
 70
     1
 43
0.0
 10
1036.000003587224
 20
6980.725529476906
 10
1827.999999295684
 20
6980.725529476906
 10
1827.999999295684
 20
7281.725519630956
 10
1036.000003587224
 20
7281.725519630956
  0
LWPOLYLINE
  5
3252
330
84AA
100
AcDbEntity
  8
0
100
AcDbPolyline
 90
        4
 70
     1
 43
0.0
 10
1022.000005017743
 20
7492.225522015155
 10
1841.999997865186
 20
7492.225522015155
 10
1841.999997865186
 20
7478.225523445666
 10
1022.000005017743
 20
7478.225523445666
  0
LWPOLYLINE
  5
3253
330
84AA
100
AcDbEntity
  8
0
100
AcDbPolyline
 90
        4
 70
     1
 43
0.0
 10
1827.999999295684
 20
7478.225523445666
 10
1841.999997865186
 20
7478.225523445666
 10
1841.999997865186
 20
6980.725529476915
 10
1827.999999295684
 20
6980.725529476915
  0
LWPOLYLINE
  5
3254
330
84AA
100
AcDbEntity
  8
0
100
AcDbPolyline
 90
        4
 70
     1
 43
0.0
 10
1841.999997865186
 20
6980.725529476915
 10
1022.000005017743
 20
6980.725529476915
 10
1022.000005017743
 20
6965.725529812174
 10
1841.999997865186
 20
6965.725529812174
  0
LWPOLYLINE
  5
3255
330
84AA
100
AcDbEntity
  8
0
100
AcDbPolyline
 90
        4
 70
     1
 43
0.0
 10
1022.000005017743
 20
6980.725529476906
 10
1036.000003587224
 20
6980.725529476906
 10
1036.000003587224
 20
7478.225523445666
 10
1022.000005017743
 20
7478.225523445666
  0
LWPOLYLINE
  5
3256
330
84AA
100
AcDbEntity
  8
0
100
AcDbPolyline
 90
        4
 70
     1
 43
0.0
 10
1036.000003587224
 20
7478.225523445666
 10
1827.999999295684
 20
7478.225523445666
 10
1827.999999295684
 20
7432.225519630956
 10
1036.000003587219
 20
7432.225519630956
  0
LWPOLYLINE
  5
3258
330
84AA
100
AcDbEntity
  8
0
100
AcDbPolyline
 90
        4
 70
     1
 43
0.0
 10
1036.000003587224
 20
7281.725519630956
 10
1827.999999295684
 20
7281.725519630956
 10
1827.999999295684
 20
7432.225519630956
 10
1036.000003587224
 20
7432.225519630956
  0
LWPOLYLINE
  5
3262
330
84AA
100
AcDbEntity
  8
0
100
AcDbPolyline
 90
        4
 70
     1
 43
0.0
 10
1052.000002514347
 20
6965.725529812174
 10
1082.000002514334
 20
6965.725529812174
 10
1082.000002514334
 20
6945.725529812174
 10
1052.000002514347
 20
6945.725529812174
  0
LWPOLYLINE
  5
3263
330
84AA
100
AcDbEntity
  8
0
100
AcDbPolyline
 90
        4
 70
     1
 43
0.0
 10
1812.000000368582
 20
6965.725529812174
 10
1782.000000368583
 20
6965.725529812174
 10
1782.000000368583
 20
6945.725529812174
 10
1812.000000368582
 20
6945.725529812174
  0
LWPOLYLINE
  5
3264
330
84AA
100
AcDbEntity
  8
0
100
AcDbPolyline
 90
        4
 70
     1
 43
0.0
 10
1812.000000368572
 20
8964.725528716928
 10
1782.000000368583
 20
8964.725528716928
 10
1782.000000368583
 20
8944.725528716928
 10
1812.000000368572
 20
8944.725528716928
  0
LWPOLYLINE
  5
3265
330
84AA
100
AcDbEntity
  8
0
100
AcDbPolyline
 90
        4
 70
     1
 43
0.0
 10
1052.000002514344
 20
8964.725528716928
 10
1082.000002514344
 20
8964.725528716928
 10
1082.000002514344
 20
8944.725528716928
 10
1052.000002514344
 20
8944.725528716928
  0
LWPOLYLINE
  5
32F1
330
84AA
100
AcDbEntity
  8
0
100
AcDbPolyline
 90
        4
 70
     1
 43
0.0
 10
9777.449572268826
 20
6965.725529812177
 10
9807.44957226884
 20
6965.725529812177
 10
9807.44957226884
 20
6945.725529812174
 10
9777.449572268826
 20
6945.725529812174
  0
LWPOLYLINE
  5
32F2
330
84AA
100
AcDbEntity
  8
0
100
AcDbPolyline
 90
        4
 70
     1
 43
0.0
 10
10167.44957012307
 20
6965.725529812177
 10
10137.44957012307
 20
6965.725529812177
 10
10137.44957012307
 20
6945.725529812174
 10
10167.44957012307
 20
6945.725529812174
  0
LWPOLYLINE
  5
32F3
330
84AA
100
AcDbEntity
  8
0
100
AcDbPolyline
 90
        4
 70
     1
 43
0.0
 10
9747.449574772238
 20
7492.225522015142
 10
10197.44956761966
 20
7492.225522015142
 10
10197.44956761966
 20
7478.22552344565
 10
9747.449574772238
 20
7478.22552344565
  0
LWPOLYLINE
  5
32F4
330
84AA
100
AcDbEntity
  8
0
100
AcDbPolyline
 90
        4
 70
     1
 43
0.0
 10
10197.44956761966
 20
6980.725529476899
 10
9747.449574772238
 20
6980.725529476899
 10
9747.449574772238
 20
6965.725529812177
 10
10197.44956761966
 20
6965.725529812177
  0
LWPOLYLINE
  5
32F5
330
84AA
100
AcDbEntity
  8
0
100
AcDbPolyline
 90
        4
 70
     1
 43
0.0
 10
9747.449574772238
 20
7478.22552344565
 10
10197.44956761966
 20
7478.22552344565
 10
10197.44956761966
 20
6980.725529476899
 10
9747.449574772238
 20
6980.725529476899
  0
LWPOLYLINE
  5
32F6
330
84AA
100
AcDbEntity
  8
0
100
AcDbPolyline
 90
        4
 70
     1
 43
0.0
 10
9747.449574772238
 20
9477.225522350414
 10
10197.44956761966
 20
9477.225522350414
 10
10197.44956761966
 20
8979.72552838166
 10
9747.449574772238
 20
8979.72552838166
  0
LWPOLYLINE
  5
32F7
330
84AA
100
AcDbEntity
  8
0
100
AcDbPolyline
 90
        4
 70
     1
 43
0.0
 10
10197.44956761966
 20
8979.72552838166
 10
9747.449574772238
 20
8979.72552838166
 10
9747.449574772238
 20
8964.72552871693
 10
10197.44956761966
 20
8964.72552871693
  0
LWPOLYLINE
  5
32F8
330
84AA
100
AcDbEntity
  8
0
100
AcDbPolyline
 90
        4
 70
     1
 43
0.0
 10
9747.449574772238
 20
9491.2255209199
 10
10197.44956761966
 20
9491.2255209199
 10
10197.44956761966
 20
9477.225522350414
 10
9747.449574772238
 20
9477.225522350414
  0
LWPOLYLINE
  5
32F9
330
84AA
100
AcDbEntity
  8
0
100
AcDbPolyline
 90
        4
 70
     1
 43
0.0
 10
10167.44957012307
 20
8964.72552871693
 10
10137.44957012307
 20
8964.72552871693
 10
10137.44957012307
 20
8944.72552871693
 10
10167.44957012307
 20
8944.72552871693
  0
LWPOLYLINE
  5
32FA
330
84AA
100
AcDbEntity
  8
0
100
AcDbPolyline
 90
        4
 70
     1
 43
0.0
 10
9777.449572268826
 20
8964.72552871693
 10
9807.44957226884
 20
8964.72552871693
 10
9807.44957226884
 20
8944.72552871693
 10
9777.449572268826
 20
8944.72552871693
  0
LWPOLYLINE
  5
32FB
330
84AA
100
AcDbEntity
  8
0
100
AcDbPolyline
 90
        4
 70
     1
 43
0.0
 10
2555.252473548847
 20
8964.725528716932
 10
2585.252473548846
 20
8964.725528716932
 10
2585.252473548846
 20
8944.725528716926
 10
2555.252473548847
 20
8944.725528716926
  0
LWPOLYLINE
  5
32FC
330
84AA
100
AcDbEntity
  8
0
100
AcDbPolyline
 90
        4
 70
     1
 43
0.0
 10
3773.252467111539
 20
8964.725528716932
 10
3743.252467111542
 20
8964.725528716932
 10
3743.252467111542
 20
8944.725528716926
 10
3773.252467111539
 20
8944.725528716926
  0
LWPOLYLINE
  5
32FD
330
84AA
100
AcDbEntity
  8
0
100
AcDbPolyline
 90
        4
 70
     1
 43
0.0
 10
4736.928594859233
 20
8964.725528716923
 10
4766.92859485923
 20
8964.725528716923
 10
4766.92859485923
 20
8944.725528716916
 10
4736.928594859233
 20
8944.725528716916
  0
LWPOLYLINE
  5
32FE
330
84AA
100
AcDbEntity
  8
0
100
AcDbPolyline
 90
        4
 70
     1
 43
0.0
 10
6746.928584130363
 20
8964.725528716923
 10
6716.928584130371
 20
8964.725528716923
 10
6716.928584130371
 20
8944.725528716916
 10
6746.928584130363
 20
8944.725528716916
  0
LWPOLYLINE
  5
32FF
330
84AA
100
AcDbEntity
  8
0
100
AcDbPolyline
 90
        4
 70
     1
 43
0.0
 10
6746.928584130364
 20
6965.725529812174
 10
6716.928584130372
 20
6965.725529812174
 10
6716.928584130372
 20
6945.725529812175
 10
6746.928584130364
 20
6945.725529812175
  0
LWPOLYLINE
  5
3300
330
84AA
100
AcDbEntity
  8
0
100
AcDbPolyline
 90
        4
 70
     1
 43
0.0
 10
4736.928594859233
 20
6965.725529812174
 10
4766.928594859231
 20
6965.725529812174
 10
4766.928594859231
 20
6945.725529812175
 10
4736.928594859233
 20
6945.725529812175
  0
LWPOLYLINE
  5
3301
330
84AA
100
AcDbEntity
  8
0
100
AcDbPolyline
 90
        4
 70
     1
 43
0.0
 10
3773.25246711154
 20
6965.725529812174
 10
3743.252467111543
 20
6965.725529812174
 10
3743.252467111543
 20
6945.725529812175
 10
3773.25246711154
 20
6945.725529812175
  0
LWPOLYLINE
  5
3302
330
84AA
100
AcDbEntity
  8
0
100
AcDbPolyline
 90
        4
 70
     1
 43
0.0
 10
2555.252473548848
 20
6965.725529812174
 10
2585.252473548846
 20
6965.725529812174
 10
2585.252473548846
 20
6945.725529812175
 10
2555.252473548848
 20
6945.725529812175
  0
LWPOLYLINE
  5
333C
330
84AA
100
AcDbEntity
  8
0
100
AcDbPolyline
 90
        4
 70
     1
 43
0.0
 10
6137.928587349013
 20
6979.725528381665
 10
6929.928583057479
 20
6979.725528381665
 10
6929.928583057479
 20
7280.725518535712
 10
6137.928587349013
 20
7280.725518535712
  0
LWPOLYLINE
  5
333D
330
84AA
100
AcDbEntity
  8
0
100
AcDbPolyline
 90
        4
 70
     1
 43
0.0
 10
4553.928595932091
 20
6979.725528381665
 10
5345.928591640561
 20
6979.725528381665
 10
5345.928591640561
 20
7280.725518535712
 10
4553.928595932091
 20
7280.725518535712
  0
LWPOLYLINE
  5
333E
330
84AA
100
AcDbEntity
  8
0
100
AcDbPolyline
 90
        4
 70
     1
 43
0.0
 10
6137.928587349013
 20
6979.725528381665
 10
5345.928591640573
 20
6979.725528381665
 10
5345.928591640573
 20
7280.725518535712
 10
6137.928587349013
 20
7280.725518535712
  0
LWPOLYLINE
  5
333F
330
84AA
100
AcDbEntity
  8
0
100
AcDbPolyline
 90
        4
 70
     1
 43
0.0
 10
3956.252466038668
 20
6979.725528381665
 10
3164.252470330197
 20
6979.725528381665
 10
3164.252470330197
 20
7280.725518535712
 10
3956.252466038668
 20
7280.725518535712
  0
LWPOLYLINE
  5
3340
330
84AA
100
AcDbEntity
  8
0
100
AcDbPolyline
 90
        4
 70
     1
 43
0.0
 10
2372.252474621725
 20
6979.725528381665
 10
3164.25247033019
 20
6979.725528381665
 10
3164.25247033019
 20
7280.725518535712
 10
2372.252474621725
 20
7280.725518535712
  0
LWPOLYLINE
  5
3341
330
84AA
100
AcDbEntity
  8
0
100
AcDbPolyline
 90
        4
 70
     1
 43
0.0
 10
2372.252474621725
 20
7280.725518535712
 10
3164.25247033019
 20
7280.725518535712
 10
3164.25247033019
 20
7431.225518535714
 10
2372.252474621725
 20
7431.225518535714
  0
LWPOLYLINE
  5
3342
330
84AA
100
AcDbEntity
  8
0
100
AcDbPolyline
 90
        4
 70
     1
 43
0.0
 10
2372.252474621725
 20
7477.225522350412
 10
3956.252466038668
 20
7477.225522350412
 10
3956.252466038653
 20
7431.225518535714
 10
2372.252474621717
 20
7431.225518535714
  0
LWPOLYLINE
  5
3343
330
84AA
100
AcDbEntity
  8
0
100
AcDbPolyline
 90
        4
 70
     1
 43
0.0
 10
2358.252476052236
 20
6979.725528381665
 10
2372.252474621725
 20
6979.725528381665
 10
2372.252474621725
 20
7477.225522350412
 10
2358.252476052236
 20
7477.225522350412
  0
LWPOLYLINE
  5
3344
330
84AA
100
AcDbEntity
  8
0
100
AcDbPolyline
 90
        4
 70
     1
 43
0.0
 10
2358.252476052236
 20
7491.225520919911
 10
3970.252464608142
 20
7491.225520919911
 10
3970.252464608142
 20
7477.225522350412
 10
2358.252476052236
 20
7477.225522350412
  0
LWPOLYLINE
  5
3345
330
84AA
100
AcDbEntity
  8
0
100
AcDbPolyline
 90
        4
 70
     1
 43
0.0
 10
3956.252466038653
 20
7280.725518535712
 10
3164.25247033019
 20
7280.725518535712
 10
3164.25247033019
 20
7431.225518535714
 10
3956.252466038653
 20
7431.225518535714
  0
LWPOLYLINE
  5
3346
330
84AA
100
AcDbEntity
  8
0
100
AcDbPolyline
 90
        4
 70
     1
 43
0.0
 10
3970.252464608142
 20
6979.725528381665
 10
3956.252466038668
 20
6979.725528381665
 10
3956.252466038668
 20
7477.225522350412
 10
3970.252464608142
 20
7477.225522350412
  0
LWPOLYLINE
  5
3347
330
84AA
100
AcDbEntity
  8
0
100
AcDbPolyline
 90
        4
 70
     1
 43
0.0
 10
2358.252476052236
 20
6965.725529812174
 10
3970.252464608142
 20
6965.725529812174
 10
3970.252464608142
 20
6979.725528381665
 10
2358.252476052236
 20
6979.725528381665
  0
LWPOLYLINE
  5
3348
330
84AA
100
AcDbEntity
  8
0
100
AcDbPolyline
 90
        4
 70
     1
 43
0.0
 10
6943.928581626969
 20
6979.725528381665
 10
6929.928583057479
 20
6979.725528381665
 10
6929.928583057479
 20
7477.225522350412
 10
6943.928581626969
 20
7477.225522350412
  0
LWPOLYLINE
  5
3349
330
84AA
100
AcDbEntity
  8
0
100
AcDbPolyline
 90
        4
 70
     1
 43
0.0
 10
6137.928587349013
 20
7280.725518535712
 10
5345.928591640573
 20
7280.725518535712
 10
5345.928591640573
 20
7431.225518535714
 10
6137.928587349013
 20
7431.225518535714
  0
LWPOLYLINE
  5
334A
330
84AA
100
AcDbEntity
  8
0
100
AcDbPolyline
 90
        4
 70
     1
 43
0.0
 10
4539.928597362637
 20
7491.225520919911
 10
6943.928581626969
 20
7491.225520919911
 10
6943.928581626969
 20
7477.225522350412
 10
4539.928597362637
 20
7477.225522350412
  0
LWPOLYLINE
  5
334B
330
84AA
100
AcDbEntity
  8
0
100
AcDbPolyline
 90
        4
 70
     1
 43
0.0
 10
4539.928597362637
 20
6979.725528381665
 10
4553.928595932108
 20
6979.725528381665
 10
4553.928595932108
 20
7477.225522350412
 10
4539.928597362637
 20
7477.225522350412
  0
LWPOLYLINE
  5
334C
330
84AA
100
AcDbEntity
  8
0
100
AcDbPolyline
 90
        4
 70
     1
 43
0.0
 10
4553.928595932108
 20
7477.225522350412
 10
6929.928583057479
 20
7477.225522350412
 10
6929.928583057479
 20
7431.225518535714
 10
4553.928595932091
 20
7431.225518535714
  0
LWPOLYLINE
  5
334D
330
84AA
100
AcDbEntity
  8
0
100
AcDbPolyline
 90
        4
 70
     1
 43
0.0
 10
4553.928595932108
 20
7280.725518535712
 10
5345.928591640561
 20
7280.725518535712
 10
5345.928591640561
 20
7431.225518535714
 10
4553.928595932108
 20
7431.225518535714
  0
LWPOLYLINE
  5
334E
330
84AA
100
AcDbEntity
  8
0
100
AcDbPolyline
 90
        4
 70
     1
 43
0.0
 10
6929.928583057479
 20
7280.725518535712
 10
6137.928587349013
 20
7280.725518535712
 10
6137.928587349013
 20
7431.225518535714
 10
6929.928583057479
 20
7431.225518535714
  0
LWPOLYLINE
  5
334F
330
84AA
100
AcDbEntity
  8
0
100
AcDbPolyline
 90
        4
 70
     1
 43
0.0
 10
4539.928597362637
 20
6965.725529812174
 10
6943.928581626969
 20
6965.725529812174
 10
6943.928581626969
 20
6979.725528381665
 10
4539.928597362637
 20
6979.725528381665
  0
LWPOLYLINE
  5
3350
330
84AA
100
AcDbEntity
  8
0
100
AcDbPolyline
 90
        4
 70
     1
 43
0.0
 10
4539.928597362637
 20
8964.725528716923
 10
6943.928581626968
 20
8964.725528716923
 10
6943.928581626968
 20
8978.72552728642
 10
4539.928597362637
 20
8978.72552728642
  0
LWPOLYLINE
  5
3351
330
84AA
100
AcDbEntity
  8
0
100
AcDbPolyline
 90
        4
 70
     1
 43
0.0
 10
6929.928583057478
 20
8978.72551744047
 10
6137.928587349013
 20
8978.72551744047
 10
6137.928587349013
 20
9129.22551744047
 10
6929.928583057478
 20
9129.22551744047
  0
LWPOLYLINE
  5
3352
330
84AA
100
AcDbEntity
  8
0
100
AcDbPolyline
 90
        4
 70
     1
 43
0.0
 10
6929.928583057478
 20
9129.22551744047
 10
6137.928587349013
 20
9129.22551744047
 10
6137.928587349013
 20
9279.72551744047
 10
6929.928583057478
 20
9279.72551744047
  0
LWPOLYLINE
  5
3353
330
84AA
100
AcDbEntity
  8
0
100
AcDbPolyline
 90
        4
 70
     1
 43
0.0
 10
6929.928583057478
 20
9279.72551744047
 10
6137.928587349013
 20
9279.72551744047
 10
6137.928587349013
 20
9430.225517440456
 10
6929.928583057478
 20
9430.225517440456
  0
LWPOLYLINE
  5
3354
330
84AA
100
AcDbEntity
  8
0
100
AcDbPolyline
 90
        4
 70
     1
 43
0.0
 10
4553.928595932106
 20
8978.72551744047
 10
5345.92859164056
 20
8978.72551744047
 10
5345.92859164056
 20
9129.22551744047
 10
4553.928595932106
 20
9129.22551744047
  0
LWPOLYLINE
  5
3355
330
84AA
100
AcDbEntity
  8
0
100
AcDbPolyline
 90
        4
 70
     1
 43
0.0
 10
4553.928595932106
 20
9129.22551744047
 10
5345.92859164056
 20
9129.22551744047
 10
5345.92859164056
 20
9279.72551744047
 10
4553.928595932106
 20
9279.72551744047
  0
LWPOLYLINE
  5
3356
330
84AA
100
AcDbEntity
  8
0
100
AcDbPolyline
 90
        4
 70
     1
 43
0.0
 10
4553.928595932106
 20
9279.72551744047
 10
5345.92859164056
 20
9279.72551744047
 10
5345.92859164056
 20
9430.225517440456
 10
4553.928595932106
 20
9430.225517440456
  0
LWPOLYLINE
  5
3357
330
84AA
100
AcDbEntity
  8
0
100
AcDbPolyline
 90
        4
 70
     1
 43
0.0
 10
4553.928595932106
 20
9476.22552125517
 10
6929.928583057478
 20
9476.22552125517
 10
6929.928583057478
 20
9430.225517440456
 10
4553.928595932091
 20
9430.225517440456
  0
LWPOLYLINE
  5
3358
330
84AA
100
AcDbEntity
  8
0
100
AcDbPolyline
 90
        4
 70
     1
 43
0.0
 10
4539.928597362637
 20
8978.72552728642
 10
4553.928595932106
 20
8978.72552728642
 10
4553.928595932106
 20
9476.22552125517
 10
4539.928597362637
 20
9476.22552125517
  0
LWPOLYLINE
  5
3359
330
84AA
100
AcDbEntity
  8
0
100
AcDbPolyline
 90
        4
 70
     1
 43
0.0
 10
4539.928597362637
 20
9490.225519824658
 10
6943.928581626968
 20
9490.225519824658
 10
6943.928581626968
 20
9476.22552125517
 10
4539.928597362637
 20
9476.22552125517
  0
LWPOLYLINE
  5
335A
330
84AA
100
AcDbEntity
  8
0
100
AcDbPolyline
 90
        4
 70
     1
 43
0.0
 10
6137.928587349013
 20
9279.72551744047
 10
5345.928591640572
 20
9279.72551744047
 10
5345.928591640572
 20
9430.225517440456
 10
6137.928587349013
 20
9430.225517440456
  0
LWPOLYLINE
  5
335B
330
84AA
100
AcDbEntity
  8
0
100
AcDbPolyline
 90
        4
 70
     1
 43
0.0
 10
6137.928587349013
 20
9129.22551744047
 10
5345.928591640572
 20
9129.22551744047
 10
5345.928591640572
 20
9279.72551744047
 10
6137.928587349013
 20
9279.72551744047
  0
LWPOLYLINE
  5
335C
330
84AA
100
AcDbEntity
  8
0
100
AcDbPolyline
 90
        4
 70
     1
 43
0.0
 10
6137.928587349013
 20
8978.72551744047
 10
5345.928591640572
 20
8978.72551744047
 10
5345.928591640572
 20
9129.22551744047
 10
6137.928587349013
 20
9129.22551744047
  0
LWPOLYLINE
  5
335D
330
84AA
100
AcDbEntity
  8
0
100
AcDbPolyline
 90
        4
 70
     1
 43
0.0
 10
6943.928581626968
 20
8978.72552728642
 10
6929.928583057478
 20
8978.72552728642
 10
6929.928583057478
 20
9476.22552125517
 10
6943.928581626968
 20
9476.22552125517
  0
LWPOLYLINE
  5
335E
330
84AA
100
AcDbEntity
  8
0
100
AcDbPolyline
 90
        4
 70
     1
 43
0.0
 10
2358.252476052235
 20
8964.725528716932
 10
3970.25246460814
 20
8964.725528716932
 10
3970.25246460814
 20
8978.72552728642
 10
2358.252476052235
 20
8978.72552728642
  0
LWPOLYLINE
  5
335F
330
84AA
100
AcDbEntity
  8
0
100
AcDbPolyline
 90
        4
 70
     1
 43
0.0
 10
3970.25246460814
 20
8978.72552728642
 10
3956.252466038666
 20
8978.72552728642
 10
3956.252466038666
 20
9476.22552125517
 10
3970.25246460814
 20
9476.22552125517
  0
LWPOLYLINE
  5
3360
330
84AA
100
AcDbEntity
  8
0
100
AcDbPolyline
 90
        4
 70
     1
 43
0.0
 10
3956.252466038652
 20
8978.72551744047
 10
3164.252470330189
 20
8978.72551744047
 10
3164.252470330189
 20
9129.22551744047
 10
3956.252466038652
 20
9129.22551744047
  0
LWPOLYLINE
  5
3361
330
84AA
100
AcDbEntity
  8
0
100
AcDbPolyline
 90
        4
 70
     1
 43
0.0
 10
3956.252466038652
 20
9129.22551744047
 10
3164.252470330189
 20
9129.22551744047
 10
3164.252470330189
 20
9279.72551744047
 10
3956.252466038652
 20
9279.72551744047
  0
LWPOLYLINE
  5
3362
330
84AA
100
AcDbEntity
  8
0
100
AcDbPolyline
 90
        4
 70
     1
 43
0.0
 10
3956.252466038652
 20
9279.72551744047
 10
3164.252470330189
 20
9279.72551744047
 10
3164.252470330189
 20
9430.225517440456
 10
3956.252466038652
 20
9430.225517440456
  0
LWPOLYLINE
  5
3363
330
84AA
100
AcDbEntity
  8
0
100
AcDbPolyline
 90
        4
 70
     1
 43
0.0
 10
2358.252476052235
 20
9490.225519824658
 10
3970.25246460814
 20
9490.225519824658
 10
3970.25246460814
 20
9476.22552125517
 10
2358.252476052235
 20
9476.22552125517
  0
LWPOLYLINE
  5
3364
330
84AA
100
AcDbEntity
  8
0
100
AcDbPolyline
 90
        4
 70
     1
 43
0.0
 10
2358.252476052235
 20
8978.72552728642
 10
2372.252474621724
 20
8978.72552728642
 10
2372.252474621724
 20
9476.22552125517
 10
2358.252476052235
 20
9476.22552125517
  0
LWPOLYLINE
  5
3365
330
84AA
100
AcDbEntity
  8
0
100
AcDbPolyline
 90
        4
 70
     1
 43
0.0
 10
2372.252474621724
 20
9476.22552125517
 10
3956.252466038666
 20
9476.22552125517
 10
3956.252466038652
 20
9430.225517440456
 10
2372.252474621716
 20
9430.225517440456
  0
LWPOLYLINE
  5
3366
330
84AA
100
AcDbEntity
  8
0
100
AcDbPolyline
 90
        4
 70
     1
 43
0.0
 10
2372.252474621724
 20
9279.72551744047
 10
3164.252470330189
 20
9279.72551744047
 10
3164.252470330189
 20
9430.225517440456
 10
2372.252474621724
 20
9430.225517440456
  0
LWPOLYLINE
  5
3367
330
84AA
100
AcDbEntity
  8
0
100
AcDbPolyline
 90
        4
 70
     1
 43
0.0
 10
2372.252474621724
 20
9129.22551744047
 10
3164.252470330189
 20
9129.22551744047
 10
3164.252470330189
 20
9279.72551744047
 10
2372.252474621724
 20
9279.72551744047
  0
LWPOLYLINE
  5
3368
330
84AA
100
AcDbEntity
  8
0
100
AcDbPolyline
 90
        4
 70
     1
 43
0.0
 10
2372.252474621724
 20
8978.72551744047
 10
3164.252470330189
 20
8978.72551744047
 10
3164.252470330189
 20
9129.22551744047
 10
2372.252474621724
 20
9129.22551744047
  0
LWPOLYLINE
  5
3369
330
84AA
100
AcDbEntity
  8
0
100
AcDbPolyline
 90
        4
 70
     1
 43
0.0
 10
12619.12569561671
 20
10432.22551982466
 10
0.0000000000030974
 20
10432.22551982466
 10
0.0000000000030974
 20
6263.978225484239
 10
12619.12569561671
 20
6263.978225484239
  0
CIRCLE
  5
5BD1
330
84AA
100
AcDbEntity
  8
0
100
AcDbCircle
 10
1420.999994050496
 20
12304.62724789995
 30
0.0
 40
9.0
  0
CIRCLE
  5
5BD9
330
84AA
100
AcDbEntity
  8
0
100
AcDbCircle
 10
1420.999994050496
 20
12304.62724789995
 30
0.0
 40
12.0
  0
LWPOLYLINE
  5
5BDA
330
84AA
100
AcDbEntity
  8
0
100
AcDbPolyline
 90
        4
 70
     1
 43
0.0
 10
1420.249994050496
 20
12298.62724789995
 10
1420.249994050496
 20
12310.62724789995
 10
1421.749994050496
 20
12310.62724789995
 10
1421.749994050496
 20
12298.62724789995
  0
LWPOLYLINE
  5
5BDB
330
84AA
100
AcDbEntity
  8
0
100
AcDbPolyline
 90
        4
 70
     1
 43
0.0
 10
5589.278370856291
 20
12298.62724789995
 10
5589.278370856291
 20
12310.62724789995
 10
5590.778370856291
 20
12310.62724789995
 10
5590.778370856291
 20
12298.62724789995
  0
CIRCLE
  5
5BDC
330
84AA
100
AcDbEntity
  8
0
100
AcDbCircle
 10
5590.028370856291
 20
12304.62724789995
 30
0.0
 40
12.0
  0
CIRCLE
  5
5BDD
330
84AA
100
AcDbEntity
  8
0
100
AcDbCircle
 10
5590.028370856291
 20
12304.62724789995
 30
0.0
 40
9.0
  0
LWPOLYLINE
  5
5C20
330
84AA
100
AcDbEntity
  8
0
100
AcDbPolyline
 90
        4
 70
     1
 43
0.0
 10
12619.12569561671
 20
5709.941583425798
 10
0.0000000000030974
 20
5709.941583425798
 10
0.0000000000030974
 20
1541.694289085379
 10
12619.12569561671
 20
1541.694289085379
  0
LWPOLYLINE
  5
7D82
330
84AA
100
AcDbEntity
  8
0
100
AcDbPolyline
 90
        4
 70
     1
 43
0.0
 10
5626.028369425781
 20
11812.12724963977
 10
5626.028369425781
 20
11776.12724963977
 10
5608.528369425781
 20
11776.12724963977
 10
5608.528369425781
 20
11812.12724963977
  0
LWPOLYLINE
  5
7D83
330
84AA
100
AcDbEntity
  8
0
100
AcDbPolyline
 90
        4
 70
     1
 43
0.0
 10
5593.528369425782
 20
11812.12724963977
 10
5593.528369425782
 20
11776.12724963977
 10
5576.028369425781
 20
11776.12724963977
 10
5576.028369425781
 20
11812.12724963977
  0
LWPOLYLINE
  5
7D84
330
84AA
100
AcDbEntity
  8
0
100
AcDbPolyline
 90
        4
 70
     1
 43
0.0
 10
5593.528369425782
 20
11780.12724963977
 10
5593.528369425782
 20
11816.12724963968
 10
5608.528369425781
 20
11816.12724963968
 10
5608.528369425781
 20
11780.12724963977
  0
LWPOLYLINE
  5
7D85
330
84AA
100
AcDbEntity
  8
0
100
AcDbPolyline
 90
        4
 70
     1
 43
0.0
 10
5196.028381823555
 20
11812.12724963977
 10
5196.028381823555
 20
11776.12724963977
 10
5213.528381823555
 20
11776.12724963977
 10
5213.528381823555
 20
11812.12724963977
  0
LWPOLYLINE
  5
7D86
330
84AA
100
AcDbEntity
  8
0
100
AcDbPolyline
 90
        4
 70
     1
 43
0.0
 10
5228.528381823554
 20
11812.12724963977
 10
5228.528381823554
 20
11776.12724963977
 10
5246.028381823555
 20
11776.12724963977
 10
5246.028381823555
 20
11812.12724963977
  0
LWPOLYLINE
  5
7D87
330
84AA
100
AcDbEntity
  8
0
100
AcDbPolyline
 90
        4
 70
     1
 43
0.0
 10
5228.528381823554
 20
11780.12724963977
 10
5228.528381823554
 20
11816.12724963968
 10
5213.528381823555
 20
11816.12724963968
 10
5213.528381823555
 20
11780.12724963977
  0
LWPOLYLINE
  5
7D88
330
84AA
100
AcDbEntity
  8
0
100
AcDbPolyline
 90
        4
 70
     1
 43
0.0
 10
1456.999992619984
 20
11812.12724963977
 10
1456.999992619984
 20
11776.12724963977
 10
1439.499992619984
 20
11776.12724963977
 10
1439.499992619984
 20
11812.12724963977
  0
LWPOLYLINE
  5
7D89
330
84AA
100
AcDbEntity
  8
0
100
AcDbPolyline
 90
        4
 70
     1
 43
0.0
 10
1424.499992619985
 20
11812.12724963977
 10
1424.499992619985
 20
11776.12724963977
 10
1406.999992619984
 20
11776.12724963977
 10
1406.999992619984
 20
11812.12724963977
  0
LWPOLYLINE
  5
7D8A
330
84AA
100
AcDbEntity
  8
0
100
AcDbPolyline
 90
        4
 70
     1
 43
0.0
 10
1424.499992619985
 20
11780.12724963977
 10
1424.499992619985
 20
11816.12724963968
 10
1439.499992619984
 20
11816.12724963968
 10
1439.499992619984
 20
11780.12724963977
  0
LWPOLYLINE
  5
7D8B
330
84AA
100
AcDbEntity
  8
0
100
AcDbPolyline
 90
        4
 70
     1
 43
0.0
 10
1027.000005017758
 20
11812.12724963977
 10
1027.000005017758
 20
11776.12724963977
 10
1044.500005017758
 20
11776.12724963977
 10
1044.500005017758
 20
11812.12724963977
  0
LWPOLYLINE
  5
7D8C
330
84AA
100
AcDbEntity
  8
0
100
AcDbPolyline
 90
        4
 70
     1
 43
0.0
 10
1059.500005017757
 20
11812.12724963977
 10
1059.500005017757
 20
11776.12724963977
 10
1077.000005017758
 20
11776.12724963977
 10
1077.000005017758
 20
11812.12724963977
  0
LWPOLYLINE
  5
7D8D
330
84AA
100
AcDbEntity
  8
0
100
AcDbPolyline
 90
        4
 70
     1
 43
0.0
 10
1059.500005017757
 20
11780.12724963977
 10
1059.500005017757
 20
11816.12724963968
 10
1044.500005017758
 20
11816.12724963968
 10
1044.500005017758
 20
11780.12724963977
  0
LWPOLYLINE
  5
7D8E
330
84AA
100
AcDbEntity
  8
0
100
AcDbPolyline
 90
        4
 70
     0
 43
0.0
 38
-32.0
 10
9767.44957715643
 20
11809.09388538576
 10
9767.44957715643
 20
11816.12725583858
 10
9787.44957715643
 20
11816.12725583858
 10
9787.44957715643
 20
11809.09388538576
  0
ARC
  5
7D8F
330
84AA
100
AcDbEntity
  8
0
100
AcDbCircle
 10
9777.449577156429
 20
11794.12725583868
 30
-32.0
 40
18.0
100
AcDbArc
 50
56.2510114041168
 51
123.748988595888
  0
CIRCLE
  5
7D90
330
84AA
100
AcDbEntity
  8
0
100
AcDbCircle
 10
9777.449577156429
 20
11794.12725583868
 30
-32.0
 40
18.0
  0
LWPOLYLINE
  5
7D91
330
84AA
100
AcDbEntity
  8
0
100
AcDbPolyline
 90
        4
 70
     0
 43
0.0
 38
-32.0
 10
10297.44957238805
 20
11809.09388538578
 10
10297.44957238805
 20
11816.1272558386
 10
10277.44957238805
 20
11816.1272558386
 10
10277.44957238805
 20
11809.09388538578
  0
ARC
  5
7D92
330
84AA
100
AcDbEntity
  8
0
100
AcDbCircle
 10
10287.44957238805
 20
11794.12725583869
 30
-32.0
 40
18.0
100
AcDbArc
 50
56.2510114041168
 51
123.748988595888
  0
CIRCLE
  5
7D93
330
84AA
100
AcDbEntity
  8
0
100
AcDbCircle
 10
10287.44957238805
 20
11794.12725583869
 30
-32.0
 40
18.0
  0
DIMENSION
  5
7DC6
330
84AA
100
AcDbEntity
  8
0
100
AcDbDimension
280
     0
  2
*D0
 10
9747.449574772243
 20
12374.79821457857
 30
0.0
 11
10032.44957477224
 21
12374.79821457857
 31
0.0
 70
    32
 71
     5
 42
569.9999999999964
 73
     0
 74
     0
 75
     0
  3
STANDARD
100
AcDbAlignedDimension
 13
10317.44957477224
 23
12327.62725743672
 33
-32.0
 14
9747.449574772243
 24
12327.62725743672
 34
-32.0
100
AcDbRotatedDimension
1001
ACAD
1000
DSTYLE
1002
{
1070
   279
1070
     2
1002
}
  0
ENDSEC
  0
SECTION
  2
OBJECTS
  0
DICTIONARY
  5
849A
330
0
100
AcDbDictionary
281
     1
  3
ACAD_DETAILVIEWSTYLE
350
8507
  3
ACAD_GROUP
350
849B
  3
ACAD_LAYOUT
350
84A7
  3
ACAD_MATERIAL
350
84B0
  3
ACAD_MLEADERSTYLE
350
84FC
  3
ACAD_MLINESTYLE
350
84A4
  3
ACAD_PLOTSETTINGS
350
84A6
  3
ACAD_PLOTSTYLENAME
350
849C
  3
ACAD_SCALELIST
350
84BF
  3
ACAD_SECTIONVIEWSTYLE
350
8508
  3
ACAD_TABLESTYLE
350
84FA
  3
ACAD_VISUALSTYLE
350
84E1
  3
ACDB_RECOMPOSE_DATA
350
851F
  3
AcDbVariableDictionary
350
8502
  3
APPDATA
350
84FE
  3
PRINTCONFIG
350
8518
  0
SUN
  5
8509
330
84AD
100
AcDbSun
 90
        1
290
     0
 63
     7
421
 16777215
 40
1.0
291
     1
 91
  2455826
 92
 54000000
292
     0
 70
     2
 71
   256
280
     1
  0
DICTIONARY
  5
8500
330
84AA
100
AcDbDictionary
280
     1
281
     1
  3
DIM_BOUNDING_BOXES_V1
360
8501
  0
DICTIONARY
  5
8507
102
{ACAD_REACTORS
330
849A
102
}
330
849A
100
AcDbDictionary
281
     1
  0
DICTIONARY
  5
849B
102
{ACAD_REACTORS
330
849A
102
}
330
849A
100
AcDbDictionary
281
     1
  0
DICTIONARY
  5
84A7
102
{ACAD_REACTORS
330
849A
102
}
330
849A
100
AcDbDictionary
281
     1
  3
Foglio1
350
84A9
  3
Model
350
84AB
  0
DICTIONARY
  5
84B0
102
{ACAD_REACTORS
330
849A
102
}
330
849A
100
AcDbDictionary
281
     1
  3
ByBlock
350
84B2
  3
ByLayer
350
84B1
  3
Global
350
84B3
  0
DICTIONARY
  5
84FC
102
{ACAD_REACTORS
330
849A
102
}
330
849A
100
AcDbDictionary
281
     1
  3
Standard
350
84FD
  0
DICTIONARY
  5
84A4
102
{ACAD_REACTORS
330
849A
102
}
330
849A
100
AcDbDictionary
281
     1
  3
Standard
350
84A5
  0
DICTIONARY
  5
84A6
102
{ACAD_REACTORS
330
849A
102
}
330
849A
100
AcDbDictionary
281
     1
  0
ACDBDICTIONARYWDFLT
  5
849C
102
{ACAD_REACTORS
330
849A
102
}
330
849A
100
AcDbDictionary
281
     1
  3
Normal
350
849D
100
AcDbDictionaryWithDefault
340
849D
  0
DICTIONARY
  5
84BF
102
{ACAD_REACTORS
330
849A
102
}
330
849A
100
AcDbDictionary
281
     1
  3
A0
350
84C0
  3
A1
350
84C1
  3
A2
350
84C2
  3
A3
350
84C3
  3
A4
350
84C4
  3
A5
350
84C5
  3
A6
350
84C6
  3
A7
350
84C7
  3
A8
350
84C8
  3
A9
350
84C9
  3
B0
350
84CA
  3
B1
350
84CB
  3
B2
350
84CC
  3
B3
350
84CD
  3
B4
350
84CE
  3
B5
350
84CF
  3
B6
350
84D0
  3
B7
350
84D1
  3
B8
350
84D2
  3
B9
350
84D3
  3
C0
350
84D4
  3
C1
350
84D5
  3
C2
350
84D6
  3
C3
350
84D7
  3
C4
350
84D8
  3
C5
350
84D9
  3
C6
350
84DA
  3
C7
350
84DB
  3
C8
350
84DC
  3
C9
350
84DD
  3
D0
350
84DE
  3
D1
350
84DF
  3
D2
350
84E0
  0
DICTIONARY
  5
8508
102
{ACAD_REACTORS
330
849A
102
}
330
849A
100
AcDbDictionary
281
     1
  0
DICTIONARY
  5
84FA
102
{ACAD_REACTORS
330
849A
102
}
330
849A
100
AcDbDictionary
281
     1
  3
Standard
350
84FB
  0
DICTIONARY
  5
84E1
102
{ACAD_REACTORS
330
849A
102
}
330
849A
100
AcDbDictionary
281
     1
  3
2dWireframe
350
84E6
  3
Basic
350
84E9
  3
Brighten
350
84ED
  3
ColorChange
350
84F1
  3
Conceptual
350
84EB
  3
Dim
350
84EC
  3
EdgeColorOff
350
84F4
  3
Facepattern
350
84F0
  3
Flat
350
84E2
  3
FlatWithEdges
350
84E3
  3
Gouraud
350
84E4
  3
GouraudWithEdges
350
84E5
  3
Hidden
350
84E8
  3
JitterOff
350
84F2
  3
Linepattern
350
84EF
  3
OverhangOff
350
84F3
  3
Realistic
350
84EA
  3
Shaded
350
84F9
  3
Shaded with edges
350
84F8
  3
Shades of Gray
350
84F5
  3
Sketchy
350
84F6
  3
Thicken
350
84EE
  3
Wireframe
350
84E7
  3
X-Ray
350
84F7
  0
XRECORD
  5
851F
102
{ACAD_REACTORS
330
849A
102
}
330
849A
100
AcDbXrecord
280
     1
 90
        1
330
84FB
  0
DICTIONARY
  5
8502
102
{ACAD_REACTORS
330
849A
102
}
330
849A
100
AcDbDictionary
281
     1
  3
CANNOSCALE
350
8503
  3
CMLEADERSTYLE
350
8505
  3
CTABLESTYLE
350
8504
  3
MSLTSCALE
350
8506
  0
DICTIONARY
  5
84FE
102
{ACAD_REACTORS
330
849A
102
}
330
849A
100
AcDbDictionary
281
     1
  0
DICTIONARYVAR
  5
8518
102
{ACAD_REACTORS
330
849A
102
}
330
849A
100
DictionaryVariables
280
     0
  1
0
  0
DICTIONARY
  5
8501
102
{ACAD_REACTORS
330
8500
102
}
330
8500
100
AcDbDictionary
281
     1
  0
LAYOUT
  5
84A9
102
{ACAD_REACTORS
330
84A7
102
}
330
84A7
100
AcDbPlotSettings
  1

  2
none_device
  4

  6

 40
0.0
 41
0.0
 42
0.0
 43
0.0
 44
0.0
 45
0.0
 46
0.0
 47
0.0
 48
0.0
 49
0.0
140
0.0
141
0.0
142
1.0
143
1.0
 70
   688
 72
     0
 73
     0
 74
     5
  7

 75
    16
 76
     0
 77
     2
 78
   300
147
1.0
148
0.0
149
0.0
100
AcDbLayout
  1
Foglio1
 70
     1
 71
     1
 10
0.0
 20
0.0
 11
0.0
 21
0.0
 12
0.0
 22
0.0
 32
0.0
 14
0.0
 24
0.0
 34
0.0
 15
0.0
 25
0.0
 35
0.0
146
0.0
 13
0.0
 23
0.0
 33
0.0
 16
1.0
 26
0.0
 36
0.0
 17
0.0
 27
1.0
 37
0.0
 76
     0
330
84A8
  0
LAYOUT
  5
84AB
102
{ACAD_REACTORS
330
84A7
102
}
330
84A7
100
AcDbPlotSettings
  1

  2
none_device
  4
Letter_(8.50_x_11.00_Inches)
  6

 40
6.35
 41
6.35
 42
6.35
 43
6.35
 44
215.9
 45
279.4
 46
0.0
 47
0.0
 48
0.0
 49
0.0
140
0.0
141
0.0
142
1.0
143
1.0
 70
  1712
 72
     0
 73
     0
 74
     0
  7

 75
     0
 76
     0
 77
     2
 78
   300
147
1.0
148
0.0
149
0.0
100
AcDbLayout
  1
Model
 70
     1
 71
     0
 10
0.0
 20
0.0
 11
12.0
 21
9.0
 12
0.0
 22
0.0
 32
0.0
 14
0.0
 24
0.0
 34
-32.0
 15
12619.12569561671
 25
13173.37456033411
 35
0.0
146
0.0
 13
0.0
 23
0.0
 33
0.0
 16
1.0
 26
0.0
 36
0.0
 17
0.0
 27
1.0
 37
0.0
 76
     0
330
84AA
331
84AD
  0
MATERIAL
  5
84B2
102
{ACAD_REACTORS
330
84B0
102
}
330
84B0
100
AcDbMaterial
  1
ByBlock
 72
     1
 94
      127
  0
MATERIAL
  5
84B1
102
{ACAD_REACTORS
330
84B0
102
}
330
84B0
100
AcDbMaterial
  1
ByLayer
 72
     1
 94
      127
  0
MATERIAL
  5
84B3
102
{ACAD_REACTORS
330
84B0
102
}
330
84B0
100
AcDbMaterial
  1
Global
 72
     1
 94
      127
  0
MLEADERSTYLE
  5
84FD
102
{ACAD_REACTORS
330
84FC
102
}
330
84FC
100
AcDbMLeaderStyle
179
     2
170
     2
171
     1
172
     0
 90
        2
 40
0.0
 41
0.0
173
     1
 91
-1056964608
340
84A1
 92
       -2
290
     1
 42
0.09
291
     1
 43
0.36
  3
Standard
341
0
 44
0.18
300

342
849F
174
     1
178
     1
175
     1
176
     0
 93
-1056964608
 45
0.18
292
     0
297
     0
 46
0.18
343
0
 94
-1056964608
 47
1.0
 49
1.0
140
1.0
293
     1
141
0.0
294
     1
177
     0
142
1.0
295
     0
296
     0
143
0.125
271
     0
272
     9
273
     9
298
     0
  0
MLINESTYLE
  5
84A5
102
{ACAD_REACTORS
330
84A4
102
}
330
84A4
100
AcDbMlineStyle
  2
Standard
 70
     0
  3

 62
   256
 51
90.0
 52
90.0
 71
     2
 49
0.5
 62
   256
  6
BYLAYER
 49
-0.5
 62
   256
  6
BYLAYER
  0
ACDBPLACEHOLDER
  5
849D
102
{ACAD_REACTORS
330
849C
102
}
330
849C
  0
SCALE
  5
84C0
102
{ACAD_REACTORS
330
84BF
102
}
330
84BF
100
AcDbScale
 70
     0
300
1:1
140
1.0
141
1.0
290
     1
  0
SCALE
  5
84C1
102
{ACAD_REACTORS
330
84BF
102
}
330
84BF
100
AcDbScale
 70
     0
300
1:2
140
1.0
141
2.0
290
     0
  0
SCALE
  5
84C2
102
{ACAD_REACTORS
330
84BF
102
}
330
84BF
100
AcDbScale
 70
     0
300
1:4
140
1.0
141
4.0
290
     0
  0
SCALE
  5
84C3
102
{ACAD_REACTORS
330
84BF
102
}
330
84BF
100
AcDbScale
 70
     0
300
1:5
140
1.0
141
5.0
290
     0
  0
SCALE
  5
84C4
102
{ACAD_REACTORS
330
84BF
102
}
330
84BF
100
AcDbScale
 70
     0
300
1:8
140
1.0
141
8.0
290
     0
  0
SCALE
  5
84C5
102
{ACAD_REACTORS
330
84BF
102
}
330
84BF
100
AcDbScale
 70
     0
300
1:10
140
1.0
141
10.0
290
     0
  0
SCALE
  5
84C6
102
{ACAD_REACTORS
330
84BF
102
}
330
84BF
100
AcDbScale
 70
     0
300
1:16
140
1.0
141
16.0
290
     0
  0
SCALE
  5
84C7
102
{ACAD_REACTORS
330
84BF
102
}
330
84BF
100
AcDbScale
 70
     0
300
1:20
140
1.0
141
20.0
290
     0
  0
SCALE
  5
84C8
102
{ACAD_REACTORS
330
84BF
102
}
330
84BF
100
AcDbScale
 70
     0
300
1:30
140
1.0
141
30.0
290
     0
  0
SCALE
  5
84C9
102
{ACAD_REACTORS
330
84BF
102
}
330
84BF
100
AcDbScale
 70
     0
300
1:40
140
1.0
141
40.0
290
     0
  0
SCALE
  5
84CA
102
{ACAD_REACTORS
330
84BF
102
}
330
84BF
100
AcDbScale
 70
     0
300
1:50
140
1.0
141
50.0
290
     0
  0
SCALE
  5
84CB
102
{ACAD_REACTORS
330
84BF
102
}
330
84BF
100
AcDbScale
 70
     0
300
1:100
140
1.0
141
100.0
290
     0
  0
SCALE
  5
84CC
102
{ACAD_REACTORS
330
84BF
102
}
330
84BF
100
AcDbScale
 70
     0
300
2:1
140
2.0
141
1.0
290
     0
  0
SCALE
  5
84CD
102
{ACAD_REACTORS
330
84BF
102
}
330
84BF
100
AcDbScale
 70
     0
300
4:1
140
4.0
141
1.0
290
     0
  0
SCALE
  5
84CE
102
{ACAD_REACTORS
330
84BF
102
}
330
84BF
100
AcDbScale
 70
     0
300
8:1
140
8.0
141
1.0
290
     0
  0
SCALE
  5
84CF
102
{ACAD_REACTORS
330
84BF
102
}
330
84BF
100
AcDbScale
 70
     0
300
10:1
140
10.0
141
1.0
290
     0
  0
SCALE
  5
84D0
102
{ACAD_REACTORS
330
84BF
102
}
330
84BF
100
AcDbScale
 70
     0
300
100:1
140
100.0
141
1.0
290
     0
  0
SCALE
  5
84D1
102
{ACAD_REACTORS
330
84BF
102
}
330
84BF
100
AcDbScale
 70
     0
300
1/128" = 1'-0"
140
0.0078125
141
12.0
290
     0
  0
SCALE
  5
84D2
102
{ACAD_REACTORS
330
84BF
102
}
330
84BF
100
AcDbScale
 70
     0
300
1/64" = 1'-0"
140
0.015625
141
12.0
290
     0
  0
SCALE
  5
84D3
102
{ACAD_REACTORS
330
84BF
102
}
330
84BF
100
AcDbScale
 70
     0
300
1/32" = 1'-0"
140
0.03125
141
12.0
290
     0
  0
SCALE
  5
84D4
102
{ACAD_REACTORS
330
84BF
102
}
330
84BF
100
AcDbScale
 70
     0
300
1/16" = 1'-0"
140
0.0625
141
12.0
290
     0
  0
SCALE
  5
84D5
102
{ACAD_REACTORS
330
84BF
102
}
330
84BF
100
AcDbScale
 70
     0
300
3/32" = 1'-0"
140
0.09375
141
12.0
290
     0
  0
SCALE
  5
84D6
102
{ACAD_REACTORS
330
84BF
102
}
330
84BF
100
AcDbScale
 70
     0
300
1/8" = 1'-0"
140
0.125
141
12.0
290
     0
  0
SCALE
  5
84D7
102
{ACAD_REACTORS
330
84BF
102
}
330
84BF
100
AcDbScale
 70
     0
300
3/16" = 1'-0"
140
0.1875
141
12.0
290
     0
  0
SCALE
  5
84D8
102
{ACAD_REACTORS
330
84BF
102
}
330
84BF
100
AcDbScale
 70
     0
300
1/4" = 1'-0"
140
0.25
141
12.0
290
     0
  0
SCALE
  5
84D9
102
{ACAD_REACTORS
330
84BF
102
}
330
84BF
100
AcDbScale
 70
     0
300
3/8" = 1'-0"
140
0.375
141
12.0
290
     0
  0
SCALE
  5
84DA
102
{ACAD_REACTORS
330
84BF
102
}
330
84BF
100
AcDbScale
 70
     0
300
1/2" = 1'-0"
140
0.5
141
12.0
290
     0
  0
SCALE
  5
84DB
102
{ACAD_REACTORS
330
84BF
102
}
330
84BF
100
AcDbScale
 70
     0
300
3/4" = 1'-0"
140
0.75
141
12.0
290
     0
  0
SCALE
  5
84DC
102
{ACAD_REACTORS
330
84BF
102
}
330
84BF
100
AcDbScale
 70
     0
300
1" = 1'-0"
140
1.0
141
12.0
290
     0
  0
SCALE
  5
84DD
102
{ACAD_REACTORS
330
84BF
102
}
330
84BF
100
AcDbScale
 70
     0
300
1-1/2" = 1'-0"
140
1.5
141
12.0
290
     0
  0
SCALE
  5
84DE
102
{ACAD_REACTORS
330
84BF
102
}
330
84BF
100
AcDbScale
 70
     0
300
3" = 1'-0"
140
3.0
141
12.0
290
     0
  0
SCALE
  5
84DF
102
{ACAD_REACTORS
330
84BF
102
}
330
84BF
100
AcDbScale
 70
     0
300
6" = 1'-0"
140
6.0
141
12.0
290
     0
  0
SCALE
  5
84E0
102
{ACAD_REACTORS
330
84BF
102
}
330
84BF
100
AcDbScale
 70
     0
300
1'-0" = 1'-0"
140
12.0
141
12.0
290
     0
  0
TABLESTYLE
  5
84FB
102
{ACAD_REACTORS
330
84FA
102
}
102
{ACAD_XDICTIONARY
360
851D
102
}
330
84FA
100
AcDbTableStyle
  3
Standard
 70
     0
 71
     0
 40
0.06
 41
0.06
280
     0
281
     0
  7
STANDARD
140
0.18
170
     2
 62
     0
 63
   257
283
     0
 90
        4
 91
        0
  1

274
    -2
284
     1
 64
     0
275
    -2
285
     1
 65
     0
276
    -2
286
     1
 66
     0
277
    -2
287
     1
 67
     0
278
    -2
288
     1
 68
     0
279
    -2
289
     1
 69
     0
  7
STANDARD
140
0.25
170
     5
 62
     0
 63
   257
283
     0
 90
        4
 91
        0
  1

274
    -2
284
     1
 64
     0
275
    -2
285
     1
 65
     0
276
    -2
286
     1
 66
     0
277
    -2
287
     1
 67
     0
278
    -2
288
     1
 68
     0
279
    -2
289
     1
 69
     0
  7
STANDARD
140
0.18
170
     5
 62
     0
 63
   257
283
     0
 90
        4
 91
        0
  1

274
    -2
284
     1
 64
     0
275
    -2
285
     1
 65
     0
276
    -2
286
     1
 66
     0
277
    -2
287
     1
 67
     0
278
    -2
288
     1
 68
     0
279
    -2
289
     1
 69
     0
  0
VISUALSTYLE
  5
84E6
102
{ACAD_REACTORS
330
84E1
102
}
330
84E1
100
AcDbVisualStyle
  2
2dWireframe
 70
     4
177
     3
291
     0
 70
    58
 90
        0
176
     1
 90
        2
176
     1
 90
        0
176
     1
 90
        0
176
     1
 40
0.6
176
     1
 40
30.0
176
     1
 62
     7
420
 16777215
176
     1
 90
        1
176
     1
 90
        4
176
     1
 62
     7
176
     1
 62
   257
176
     1
 90
        1
176
     1
 90
        1
176
     1
 40
1.0
176
     1
 90
        0
176
     1
 62
   257
176
     1
 40
1.0
176
     1
 90
        1
176
     1
 90
        6
176
     1
 90
        2
176
     1
 62
     7
176
     1
 90
        5
176
     1
 90
        0
176
     1
 90
        0
176
     1
290
     0
176
     1
 90
        1
176
     1
 40
0.0
176
     1
 90
        0
176
     1
290
     1
176
     1
290
     1
176
     1
290
     0
176
     1
290
     0
176
     1
290
     0
176
     1
290
     0
176
     1
290
     0
176
     1
290
     0
176
     1
290
     0
176
     1
 90
       50
176
     1
 40
0.0
176
     1
 40
1.0
176
     1
 90
        0
176
     1
 62
    18
420
        0
176
     1
 90
       50
176
     1
 90
        3
176
     1
 62
     5
420
      255
176
     1
290
     0
176
     1
 90
       50
176
     1
 90
       50
176
     1
 90
       50
176
     1
290
     0
176
     1
 90
       50
176
     1
 62
   256
176
     0
 40
1.0
176
     0
 90
        2
176
     1
  1
strokes_ogs.tif
176
     1
290
     0
176
     1
 40
1.0
176
     1
 40
1.0
176
     1
  0
VISUALSTYLE
  5
84E9
102
{ACAD_REACTORS
330
84E1
102
}
330
84E1
100
AcDbVisualStyle
  2
Basic
 70
     7
177
     3
291
     1
 70
    58
 90
        1
176
     1
 90
        0
176
     1
 90
        1
176
     1
 90
        0
176
     1
 40
0.6
176
     1
 40
30.0
176
     1
 62
     7
420
 16777215
176
     1
 90
        0
176
     1
 90
        4
176
     1
 62
     7
176
     1
 62
   257
176
     1
 90
        1
176
     1
 90
        1
176
     1
 40
1.0
176
     1
 90
        8
176
     1
 62
     7
176
     1
 40
1.0
176
     1
 90
        1
176
     1
 90
        6
176
     1
 90
        2
176
     1
 62
     7
176
     1
 90
        5
176
     1
 90
        0
176
     1
 90
        0
176
     1
290
     0
176
     1
 90
        1
176
     1
 40
0.0
176
     1
 90
        0
176
     1
290
     0
176
     1
290
     1
176
     1
290
     1
176
     1
290
     0
176
     1
290
     0
176
     1
290
     0
176
     1
290
     0
176
     1
290
     0
176
     1
290
     0
176
     1
 90
       50
176
     1
 40
0.0
176
     1
 40
1.0
176
     1
 90
        0
176
     1
 62
    18
420
        0
176
     1
 90
       50
176
     1
 90
        3
176
     1
 62
     5
420
      255
176
     1
290
     0
176
     1
 90
       50
176
     1
 90
       50
176
     1
 90
       50
176
     1
290
     0
176
     1
 90
       50
176
     1
 62
   256
176
     0
 40
1.0
176
     0
 90
        2
176
     1
  1
strokes_ogs.tif
176
     1
290
     0
176
     1
 40
1.0
176
     1
 40
1.0
176
     1
  0
VISUALSTYLE
  5
84ED
102
{ACAD_REACTORS
330
84E1
102
}
330
84E1
100
AcDbVisualStyle
  2
Brighten
 70
    12
177
     3
291
     1
 70
    58
 90
        2
176
     1
 90
        2
176
     1
 90
        0
176
     1
 90
        0
176
     1
 40
0.6
176
     1
 40
30.0
176
     1
 62
     7
420
 16777215
176
     1
 90
        1
176
     1
 90
        4
176
     1
 62
     7
176
     1
 62
   257
176
     1
 90
        1
176
     1
 90
        1
176
     1
 40
1.0
176
     1
 90
        8
176
     1
 62
     7
176
     1
 40
1.0
176
     1
 90
        1
176
     1
 90
        6
176
     1
 90
        2
176
     1
 62
     7
176
     1
 90
        5
176
     1
 90
        0
176
     1
 90
        0
176
     1
290
     0
176
     1
 90
        1
176
     1
 40
50.0
176
     1
 90
        0
176
     1
290
     0
176
     1
290
     1
176
     1
290
     1
176
     1
290
     0
176
     1
290
     0
176
     1
290
     0
176
     1
290
     0
176
     1
290
     0
176
     1
290
     0
176
     1
 90
       50
176
     1
 40
0.0
176
     1
 40
1.0
176
     1
 90
        0
176
     1
 62
    18
420
        0
176
     1
 90
       50
176
     1
 90
        3
176
     1
 62
     5
420
      255
176
     1
290
     0
176
     1
 90
       50
176
     1
 90
       50
176
     1
 90
       50
176
     1
290
     0
176
     1
 90
       50
176
     1
 62
   256
176
     0
 40
1.0
176
     0
 90
        2
176
     1
  1
strokes_ogs.tif
176
     1
290
     0
176
     1
 40
1.0
176
     1
 40
1.0
176
     1
  0
VISUALSTYLE
  5
84F1
102
{ACAD_REACTORS
330
84E1
102
}
330
84E1
100
AcDbVisualStyle
  2
ColorChange
 70
    16
177
     3
291
     1
 70
    58
 90
        2
176
     1
 90
        2
176
     1
 90
        3
176
     1
 90
        0
176
     1
 40
0.6
176
     1
 40
30.0
176
     1
 62
     8
420
  8421504
176
     1
 90
        1
176
     1
 90
        4
176
     1
 62
     7
176
     1
 62
   257
176
     1
 90
        1
176
     1
 90
        1
176
     1
 40
1.0
176
     1
 90
        8
176
     1
 62
     8
420
  8421504
176
     1
 40
1.0
176
     1
 90
        1
176
     1
 90
        6
176
     1
 90
        2
176
     1
 62
     7
176
     1
 90
        5
176
     1
 90
        0
176
     1
 90
        0
176
     1
290
     0
176
     1
 90
        1
176
     1
 40
0.0
176
     1
 90
        0
176
     1
290
     0
176
     1
290
     1
176
     1
290
     1
176
     1
290
     0
176
     1
290
     0
176
     1
290
     0
176
     1
290
     0
176
     1
290
     0
176
     1
290
     0
176
     1
 90
       50
176
     1
 40
0.0
176
     1
 40
1.0
176
     1
 90
        0
176
     1
 62
    18
420
        0
176
     1
 90
       50
176
     1
 90
        3
176
     1
 62
     5
420
      255
176
     1
290
     0
176
     1
 90
       50
176
     1
 90
       50
176
     1
 90
       50
176
     1
290
     0
176
     1
 90
       50
176
     1
 62
   256
176
     0
 40
1.0
176
     0
 90
        2
176
     1
  1
strokes_ogs.tif
176
     1
290
     0
176
     1
 40
1.0
176
     1
 40
1.0
176
     1
  0
VISUALSTYLE
  5
84EB
102
{ACAD_REACTORS
330
84E1
102
}
330
84E1
100
AcDbVisualStyle
  2
Conceptual
 70
     9
177
     3
291
     0
 70
    58
 90
        3
176
     1
 90
        2
176
     1
 90
        0
176
     1
 90
        0
176
     1
 40
0.6
176
     1
 40
30.0
176
     1
 62
     7
420
 16777215
176
     1
 90
        2
176
     1
 90
        2
176
     1
 62
     7
176
     1
 62
   257
176
     1
 90
        1
176
     1
 90
        1
176
     1
 40
179.0
176
     1
 90
        8
176
     1
 62
     7
176
     1
 40
1.0
176
     1
 90
        1
176
     1
 90
        6
176
     1
 90
        2
176
     1
 62
     7
176
     1
 90
        3
176
     1
 90
        0
176
     1
 90
        0
176
     1
290
     0
176
     1
 90
        1
176
     1
 40
0.0
176
     1
 90
        0
176
     1
290
     0
176
     1
290
     1
176
     1
290
     1
176
     1
290
     0
176
     1
290
     0
176
     1
290
     0
176
     1
290
     0
176
     1
290
     0
176
     1
290
     0
176
     1
 90
       50
176
     1
 40
0.0
176
     1
 40
1.0
176
     1
 90
        0
176
     1
 62
    18
420
        0
176
     1
 90
       50
176
     1
 90
        3
176
     1
 62
     5
420
      255
176
     1
290
     0
176
     1
 90
       50
176
     1
 90
       50
176
     1
 90
       50
176
     1
290
     0
176
     1
 90
       50
176
     1
 62
   256
176
     0
 40
1.0
176
     0
 90
        2
176
     1
  1
strokes_ogs.tif
176
     1
290
     0
176
     1
 40
1.0
176
     1
 40
1.0
176
     1
  0
VISUALSTYLE
  5
84EC
102
{ACAD_REACTORS
330
84E1
102
}
330
84E1
100
AcDbVisualStyle
  2
Dim
 70
    11
177
     3
291
     1
 70
    58
 90
        2
176
     1
 90
        2
176
     1
 90
        0
176
     1
 90
        0
176
     1
 40
0.6
176
     1
 40
30.0
176
     1
 62
     7
420
 16777215
176
     1
 90
        1
176
     1
 90
        4
176
     1
 62
     7
176
     1
 62
   257
176
     1
 90
        1
176
     1
 90
        1
176
     1
 40
1.0
176
     1
 90
        8
176
     1
 62
     7
176
     1
 40
1.0
176
     1
 90
        1
176
     1
 90
        6
176
     1
 90
        2
176
     1
 62
     7
176
     1
 90
        5
176
     1
 90
        0
176
     1
 90
        0
176
     1
290
     0
176
     1
 90
        1
176
     1
 40
-50.0
176
     1
 90
        0
176
     1
290
     0
176
     1
290
     1
176
     1
290
     1
176
     1
290
     0
176
     1
290
     0
176
     1
290
     0
176
     1
290
     0
176
     1
290
     0
176
     1
290
     0
176
     1
 90
       50
176
     1
 40
0.0
176
     1
 40
1.0
176
     1
 90
        0
176
     1
 62
    18
420
        0
176
     1
 90
       50
176
     1
 90
        3
176
     1
 62
     5
420
      255
176
     1
290
     0
176
     1
 90
       50
176
     1
 90
       50
176
     1
 90
       50
176
     1
290
     0
176
     1
 90
       50
176
     1
 62
   256
176
     0
 40
1.0
176
     0
 90
        2
176
     1
  1
strokes_ogs.tif
176
     1
290
     0
176
     1
 40
1.0
176
     1
 40
1.0
176
     1
  0
VISUALSTYLE
  5
84F4
102
{ACAD_REACTORS
330
84E1
102
}
330
84E1
100
AcDbVisualStyle
  2
EdgeColorOff
 70
    22
177
     3
291
     1
 70
    58
 90
        2
176
     0
 90
        2
176
     0
 90
        0
176
     0
 90
        0
176
     0
 40
0.6
176
     0
 40
30.0
176
     0
 62
     7
420
 16777215
176
     0
 90
        1
176
     0
 90
        4
176
     0
 62
     7
176
     0
 62
   257
176
     0
 90
        1
176
     0
 90
        1
176
     0
 40
1.0
176
     0
 90
        8
176
     2
 62
     7
176
     0
 40
1.0
176
     0
 90
        1
176
     0
 90
        6
176
     0
 90
        2
176
     0
 62
     7
176
     0
 90
        5
176
     0
 90
        0
176
     0
 90
        0
176
     0
290
     0
176
     0
 90
        1
176
     0
 40
0.0
176
     0
 90
        0
176
     0
290
     0
176
     0
290
     1
176
     0
290
     1
176
     0
290
     0
176
     0
290
     0
176
     0
290
     0
176
     0
290
     0
176
     0
290
     0
176
     0
290
     0
176
     0
 90
       50
176
     0
 40
0.0
176
     0
 40
1.0
176
     0
 90
        0
176
     0
 62
    18
420
        0
176
     0
 90
       50
176
     0
 90
        3
176
     0
 62
     5
420
      255
176
     0
290
     0
176
     0
 90
       50
176
     0
 90
       50
176
     0
 90
       50
176
     0
290
     0
176
     0
 90
       50
176
     0
 62
   256
176
     0
 40
1.0
176
     0
 90
        2
176
     0
  1
strokes_ogs.tif
176
     0
290
     0
176
     0
 40
1.0
176
     0
 40
1.0
176
     0
  0
VISUALSTYLE
  5
84F0
102
{ACAD_REACTORS
330
84E1
102
}
330
84E1
100
AcDbVisualStyle
  2
Facepattern
 70
    15
177
     3
291
     1
 70
    58
 90
        2
176
     1
 90
        2
176
     1
 90
        0
176
     1
 90
        0
176
     1
 40
0.6
176
     1
 40
30.0
176
     1
 62
     7
420
 16777215
176
     1
 90
        1
176
     1
 90
        4
176
     1
 62
     7
176
     1
 62
   257
176
     1
 90
        1
176
     1
 90
        1
176
     1
 40
1.0
176
     1
 90
        8
176
     1
 62
     7
176
     1
 40
1.0
176
     1
 90
        1
176
     1
 90
        6
176
     1
 90
        2
176
     1
 62
     7
176
     1
 90
        5
176
     1
 90
        0
176
     1
 90
        0
176
     1
290
     0
176
     1
 90
        1
176
     1
 40
0.0
176
     1
 90
        0
176
     1
290
     0
176
     1
290
     1
176
     1
290
     1
176
     1
290
     0
176
     1
290
     0
176
     1
290
     0
176
     1
290
     0
176
     1
290
     0
176
     1
290
     0
176
     1
 90
       50
176
     1
 40
0.0
176
     1
 40
1.0
176
     1
 90
        0
176
     1
 62
    18
420
        0
176
     1
 90
       50
176
     1
 90
        3
176
     1
 62
     5
420
      255
176
     1
290
     0
176
     1
 90
       50
176
     1
 90
       50
176
     1
 90
       50
176
     1
290
     0
176
     1
 90
       50
176
     1
 62
   256
176
     0
 40
1.0
176
     0
 90
        2
176
     1
  1
strokes_ogs.tif
176
     1
290
     0
176
     1
 40
1.0
176
     1
 40
1.0
176
     1
  0
VISUALSTYLE
  5
84E2
102
{ACAD_REACTORS
330
84E1
102
}
330
84E1
100
AcDbVisualStyle
  2
Flat
 70
     0
177
     3
291
     1
 70
    58
 90
        2
176
     1
 90
        1
176
     1
 90
        1
176
     1
 90
        2
176
     1
 40
0.6
176
     1
 40
30.0
176
     1
 62
     7
420
 16777215
176
     1
 90
        0
176
     1
 90
        0
176
     1
 62
     7
176
     1
 62
   257
176
     1
 90
        1
176
     1
 90
        1
176
     1
 40
1.0
176
     1
 90
        8
176
     1
 62
     7
176
     1
 40
1.0
176
     1
 90
        1
176
     1
 90
        6
176
     1
 90
        2
176
     1
 62
     7
176
     1
 90
        5
176
     1
 90
        0
176
     1
 90
        0
176
     1
290
     0
176
     1
 90
       13
176
     1
 40
0.0
176
     1
 90
        0
176
     1
290
     0
176
     1
290
     1
176
     1
290
     1
176
     1
290
     0
176
     1
290
     0
176
     1
290
     0
176
     1
290
     0
176
     1
290
     0
176
     1
290
     0
176
     1
 90
       50
176
     1
 40
0.0
176
     1
 40
1.0
176
     1
 90
        0
176
     1
 62
    18
420
        0
176
     1
 90
       50
176
     1
 90
        3
176
     1
 62
     5
420
      255
176
     1
290
     0
176
     1
 90
       50
176
     1
 90
       50
176
     1
 90
       50
176
     1
290
     0
176
     1
 90
       50
176
     1
 62
   256
176
     0
 40
1.0
176
     0
 90
        2
176
     1
  1
strokes_ogs.tif
176
     1
290
     0
176
     1
 40
1.0
176
     1
 40
1.0
176
     1
  0
VISUALSTYLE
  5
84E3
102
{ACAD_REACTORS
330
84E1
102
}
330
84E1
100
AcDbVisualStyle
  2
FlatWithEdges
 70
     1
177
     3
291
     1
 70
    58
 90
        2
176
     1
 90
        1
176
     1
 90
        1
176
     1
 90
        2
176
     1
 40
0.6
176
     1
 40
30.0
176
     1
 62
     7
420
 16777215
176
     1
 90
        1
176
     1
 90
        0
176
     1
 62
     7
176
     1
 62
   257
176
     1
 90
        1
176
     1
 90
        1
176
     1
 40
1.0
176
     1
 90
        0
176
     1
 62
   257
176
     1
 40
1.0
176
     1
 90
        1
176
     1
 90
        6
176
     1
 90
        2
176
     1
 62
     7
176
     1
 90
        5
176
     1
 90
        0
176
     1
 90
        0
176
     1
290
     0
176
     1
 90
       13
176
     1
 40
0.0
176
     1
 90
        0
176
     1
290
     0
176
     1
290
     1
176
     1
290
     1
176
     1
290
     0
176
     1
290
     0
176
     1
290
     0
176
     1
290
     0
176
     1
290
     0
176
     1
290
     0
176
     1
 90
       50
176
     1
 40
0.0
176
     1
 40
1.0
176
     1
 90
        0
176
     1
 62
    18
420
        0
176
     1
 90
       50
176
     1
 90
        3
176
     1
 62
     5
420
      255
176
     1
290
     0
176
     1
 90
       50
176
     1
 90
       50
176
     1
 90
       50
176
     1
290
     0
176
     1
 90
       50
176
     1
 62
   256
176
     0
 40
1.0
176
     0
 90
        2
176
     1
  1
strokes_ogs.tif
176
     1
290
     0
176
     1
 40
1.0
176
     1
 40
1.0
176
     1
  0
VISUALSTYLE
  5
84E4
102
{ACAD_REACTORS
330
84E1
102
}
330
84E1
100
AcDbVisualStyle
  2
Gouraud
 70
     2
177
     3
291
     1
 70
    58
 90
        2
176
     1
 90
        2
176
     1
 90
        1
176
     1
 90
        2
176
     1
 40
0.6
176
     1
 40
30.0
176
     1
 62
     7
420
 16777215
176
     1
 90
        0
176
     1
 90
        0
176
     1
 62
     7
176
     1
 62
   257
176
     1
 90
        1
176
     1
 90
        1
176
     1
 40
1.0
176
     1
 90
        0
176
     1
 62
     7
176
     1
 40
1.0
176
     1
 90
        1
176
     1
 90
        6
176
     1
 90
        2
176
     1
 62
     7
176
     1
 90
        5
176
     1
 90
        0
176
     1
 90
        0
176
     1
290
     0
176
     1
 90
       13
176
     1
 40
0.0
176
     1
 90
        0
176
     1
290
     0
176
     1
290
     1
176
     1
290
     1
176
     1
290
     0
176
     1
290
     0
176
     1
290
     0
176
     1
290
     0
176
     1
290
     0
176
     1
290
     0
176
     1
 90
       50
176
     1
 40
0.0
176
     1
 40
1.0
176
     1
 90
        0
176
     1
 62
    18
420
        0
176
     1
 90
       50
176
     1
 90
        3
176
     1
 62
     5
420
      255
176
     1
290
     0
176
     1
 90
       50
176
     1
 90
       50
176
     1
 90
       50
176
     1
290
     0
176
     1
 90
       50
176
     1
 62
   256
176
     0
 40
1.0
176
     0
 90
        2
176
     1
  1
strokes_ogs.tif
176
     1
290
     0
176
     1
 40
1.0
176
     1
 40
1.0
176
     1
  0
VISUALSTYLE
  5
84E5
102
{ACAD_REACTORS
330
84E1
102
}
330
84E1
100
AcDbVisualStyle
  2
GouraudWithEdges
 70
     3
177
     3
291
     1
 70
    58
 90
        2
176
     1
 90
        2
176
     1
 90
        1
176
     1
 90
        2
176
     1
 40
0.6
176
     1
 40
30.0
176
     1
 62
     7
420
 16777215
176
     1
 90
        1
176
     1
 90
        0
176
     1
 62
     7
176
     1
 62
   257
176
     1
 90
        1
176
     1
 90
        1
176
     1
 40
1.0
176
     1
 90
        0
176
     1
 62
   257
176
     1
 40
1.0
176
     1
 90
        1
176
     1
 90
        6
176
     1
 90
        2
176
     1
 62
     7
176
     1
 90
        5
176
     1
 90
        0
176
     1
 90
        0
176
     1
290
     0
176
     1
 90
       13
176
     1
 40
0.0
176
     1
 90
        0
176
     1
290
     0
176
     1
290
     1
176
     1
290
     1
176
     1
290
     0
176
     1
290
     0
176
     1
290
     0
176
     1
290
     0
176
     1
290
     0
176
     1
290
     0
176
     1
 90
       50
176
     1
 40
0.0
176
     1
 40
1.0
176
     1
 90
        0
176
     1
 62
    18
420
        0
176
     1
 90
       50
176
     1
 90
        3
176
     1
 62
     5
420
      255
176
     1
290
     0
176
     1
 90
       50
176
     1
 90
       50
176
     1
 90
       50
176
     1
290
     0
176
     1
 90
       50
176
     1
 62
   256
176
     0
 40
1.0
176
     0
 90
        2
176
     1
  1
strokes_ogs.tif
176
     1
290
     0
176
     1
 40
1.0
176
     1
 40
1.0
176
     1
  0
VISUALSTYLE
  5
84E8
102
{ACAD_REACTORS
330
84E1
102
}
330
84E1
100
AcDbVisualStyle
  2
Hidden
 70
     6
177
     3
291
     0
 70
    58
 90
        1
176
     1
 90
        2
176
     1
 90
        2
176
     1
 90
        0
176
     1
 40
0.6
176
     1
 40
30.0
176
     1
 62
     7
420
 16777215
176
     1
 90
        2
176
     1
 90
        2
176
     1
 62
     7
176
     1
 62
   257
176
     1
 90
        2
176
     1
 90
        1
176
     1
 40
40.0
176
     1
 90
        0
176
     1
 62
   257
176
     1
 40
1.0
176
     1
 90
        1
176
     1
 90
        6
176
     1
 90
        2
176
     1
 62
     7
176
     1
 90
        3
176
     1
 90
        0
176
     1
 90
        0
176
     1
290
     0
176
     1
 90
        1
176
     1
 40
0.0
176
     1
 90
        0
176
     1
290
     0
176
     1
290
     1
176
     1
290
     1
176
     1
290
     0
176
     1
290
     0
176
     1
290
     0
176
     1
290
     0
176
     1
290
     0
176
     1
290
     0
176
     1
 90
       50
176
     1
 40
0.0
176
     1
 40
1.0
176
     1
 90
        0
176
     1
 62
    18
420
        0
176
     1
 90
       50
176
     1
 90
        3
176
     1
 62
     5
420
      255
176
     1
290
     0
176
     1
 90
       50
176
     1
 90
       50
176
     1
 90
       50
176
     1
290
     0
176
     1
 90
       50
176
     1
 62
   256
176
     0
 40
1.0
176
     0
 90
        2
176
     1
  1
strokes_ogs.tif
176
     1
290
     0
176
     1
 40
1.0
176
     1
 40
1.0
176
     1
  0
VISUALSTYLE
  5
84F2
102
{ACAD_REACTORS
330
84E1
102
}
330
84E1
100
AcDbVisualStyle
  2
JitterOff
 70
    20
177
     3
291
     1
 70
    58
 90
        2
176
     0
 90
        2
176
     0
 90
        0
176
     0
 90
        0
176
     0
 40
0.6
176
     0
 40
30.0
176
     0
 62
     7
420
 16777215
176
     0
 90
        1
176
     0
 90
        4
176
     0
 62
     7
176
     0
 62
   257
176
     0
 90
        1
176
     0
 90
        1
176
     0
 40
1.0
176
     0
 90
       10
176
     2
 62
     7
176
     0
 40
1.0
176
     0
 90
        1
176
     0
 90
        6
176
     0
 90
        2
176
     0
 62
     7
176
     0
 90
        5
176
     0
 90
        0
176
     0
 90
        0
176
     0
290
     0
176
     0
 90
        1
176
     0
 40
0.0
176
     0
 90
        0
176
     0
290
     0
176
     0
290
     1
176
     0
290
     1
176
     0
290
     0
176
     0
290
     0
176
     0
290
     0
176
     0
290
     0
176
     0
290
     0
176
     0
290
     0
176
     0
 90
       50
176
     0
 40
0.0
176
     0
 40
1.0
176
     0
 90
        0
176
     0
 62
    18
420
        0
176
     0
 90
       50
176
     0
 90
        3
176
     0
 62
     5
420
      255
176
     0
290
     0
176
     0
 90
       50
176
     0
 90
       50
176
     0
 90
       50
176
     0
290
     0
176
     0
 90
       50
176
     0
 62
   256
176
     0
 40
1.0
176
     0
 90
        2
176
     0
  1
strokes_ogs.tif
176
     0
290
     0
176
     0
 40
1.0
176
     0
 40
1.0
176
     0
  0
VISUALSTYLE
  5
84EF
102
{ACAD_REACTORS
330
84E1
102
}
330
84E1
100
AcDbVisualStyle
  2
Linepattern
 70
    14
177
     3
291
     1
 70
    58
 90
        2
176
     1
 90
        2
176
     1
 90
        0
176
     1
 90
        0
176
     1
 40
0.6
176
     1
 40
30.0
176
     1
 62
     7
420
 16777215
176
     1
 90
        1
176
     1
 90
        4
176
     1
 62
     7
176
     1
 62
   257
176
     1
 90
        7
176
     1
 90
        7
176
     1
 40
1.0
176
     1
 90
        8
176
     1
 62
     7
176
     1
 40
1.0
176
     1
 90
        1
176
     1
 90
        6
176
     1
 90
        2
176
     1
 62
     7
176
     1
 90
        5
176
     1
 90
        0
176
     1
 90
        0
176
     1
290
     0
176
     1
 90
        1
176
     1
 40
0.0
176
     1
 90
        0
176
     1
290
     0
176
     1
290
     1
176
     1
290
     1
176
     1
290
     0
176
     1
290
     0
176
     1
290
     0
176
     1
290
     0
176
     1
290
     0
176
     1
290
     0
176
     1
 90
       50
176
     1
 40
0.0
176
     1
 40
1.0
176
     1
 90
        0
176
     1
 62
    18
420
        0
176
     1
 90
       50
176
     1
 90
        3
176
     1
 62
     5
420
      255
176
     1
290
     0
176
     1
 90
       50
176
     1
 90
       50
176
     1
 90
       50
176
     1
290
     0
176
     1
 90
       50
176
     1
 62
   256
176
     0
 40
1.0
176
     0
 90
        2
176
     1
  1
strokes_ogs.tif
176
     1
290
     0
176
     1
 40
1.0
176
     1
 40
1.0
176
     1
  0
VISUALSTYLE
  5
84F3
102
{ACAD_REACTORS
330
84E1
102
}
330
84E1
100
AcDbVisualStyle
  2
OverhangOff
 70
    21
177
     3
291
     1
 70
    58
 90
        2
176
     0
 90
        2
176
     0
 90
        0
176
     0
 90
        0
176
     0
 40
0.6
176
     0
 40
30.0
176
     0
 62
     7
420
 16777215
176
     0
 90
        1
176
     0
 90
        4
176
     0
 62
     7
176
     0
 62
   257
176
     0
 90
        1
176
     0
 90
        1
176
     0
 40
1.0
176
     0
 90
        9
176
     2
 62
     7
176
     0
 40
1.0
176
     0
 90
        1
176
     0
 90
        6
176
     0
 90
        2
176
     0
 62
     7
176
     0
 90
        5
176
     0
 90
        0
176
     0
 90
        0
176
     0
290
     0
176
     0
 90
        1
176
     0
 40
0.0
176
     0
 90
        0
176
     0
290
     0
176
     0
290
     1
176
     0
290
     1
176
     0
290
     0
176
     0
290
     0
176
     0
290
     0
176
     0
290
     0
176
     0
290
     0
176
     0
290
     0
176
     0
 90
       50
176
     0
 40
0.0
176
     0
 40
1.0
176
     0
 90
        0
176
     0
 62
    18
420
        0
176
     0
 90
       50
176
     0
 90
        3
176
     0
 62
     5
420
      255
176
     0
290
     0
176
     0
 90
       50
176
     0
 90
       50
176
     0
 90
       50
176
     0
290
     0
176
     0
 90
       50
176
     0
 62
   256
176
     0
 40
1.0
176
     0
 90
        2
176
     0
  1
strokes_ogs.tif
176
     0
290
     0
176
     0
 40
1.0
176
     0
 40
1.0
176
     0
  0
VISUALSTYLE
  5
84EA
102
{ACAD_REACTORS
330
84E1
102
}
330
84E1
100
AcDbVisualStyle
  2
Realistic
 70
     8
177
     3
291
     0
 70
    58
 90
        2
176
     1
 90
        3
176
     1
 90
        0
176
     1
 90
        2
176
     1
 40
0.6
176
     1
 40
30.0
176
     1
 62
     7
420
 16777215
176
     1
 90
        0
176
     1
 90
        0
176
     1
 62
     7
176
     1
 62
   257
176
     1
 90
        1
176
     1
 90
        1
176
     1
 40
1.0
176
     1
 90
        8
176
     1
 62
   257
176
     1
 40
1.0
176
     1
 90
        1
176
     1
 90
        6
176
     1
 90
        2
176
     1
 62
     7
176
     1
 90
        3
176
     1
 90
        0
176
     1
 90
        0
176
     1
290
     0
176
     1
 90
       13
176
     1
 40
0.0
176
     1
 90
        0
176
     1
290
     0
176
     1
290
     1
176
     1
290
     1
176
     1
290
     0
176
     1
290
     0
176
     1
290
     0
176
     1
290
     0
176
     1
290
     0
176
     1
290
     0
176
     1
 90
       50
176
     1
 40
0.0
176
     1
 40
1.0
176
     1
 90
        0
176
     1
 62
    18
420
        0
176
     1
 90
       50
176
     1
 90
        3
176
     1
 62
     5
420
      255
176
     1
290
     0
176
     1
 90
       50
176
     1
 90
       50
176
     1
 90
       50
176
     1
290
     0
176
     1
 90
       50
176
     1
 62
   256
176
     0
 40
1.0
176
     0
 90
        2
176
     1
  1
strokes_ogs.tif
176
     1
290
     0
176
     1
 40
1.0
176
     1
 40
1.0
176
     1
  0
VISUALSTYLE
  5
84F9
102
{ACAD_REACTORS
330
84E1
102
}
330
84E1
100
AcDbVisualStyle
  2
Shaded
 70
    27
177
     3
291
     0
 70
    58
 90
        2
176
     1
 90
        2
176
     1
 90
        1
176
     1
 90
        2
176
     1
 40
0.6
176
     1
 40
30.0
176
     1
 62
     7
420
 16777215
176
     1
 90
        0
176
     1
 90
        4
176
     1
 62
     7
176
     1
 62
   257
176
     1
 90
        1
176
     1
 90
        1
176
     1
 40
1.0
176
     1
 90
        8
176
     1
 62
   257
176
     1
 40
1.0
176
     1
 90
        1
176
     1
 90
        6
176
     1
 90
        2
176
     1
 62
     8
420
  7895160
176
     1
 90
        3
176
     1
 90
        0
176
     1
 90
        0
176
     1
290
     0
176
     1
 90
        5
176
     1
 40
0.0
176
     1
 90
        0
176
     1
290
     0
176
     1
290
     1
176
     1
290
     1
176
     1
290
     0
176
     1
290
     0
176
     1
290
     0
176
     1
290
     0
176
     1
290
     0
176
     1
290
     0
176
     1
 90
       50
176
     1
 40
0.0
176
     1
 40
1.0
176
     1
 90
        0
176
     1
 62
    18
420
        0
176
     1
 90
       50
176
     1
 90
        3
176
     1
 62
     5
420
      255
176
     1
290
     0
176
     1
 90
       50
176
     1
 90
       50
176
     1
 90
       50
176
     1
290
     0
176
     1
 90
       50
176
     1
 62
   256
176
     0
 40
1.0
176
     0
 90
        2
176
     1
  1
strokes_ogs.tif
176
     1
290
     0
176
     1
 40
1.0
176
     1
 40
1.0
176
     1
  0
VISUALSTYLE
  5
84F8
102
{ACAD_REACTORS
330
84E1
102
}
330
84E1
100
AcDbVisualStyle
  2
Shaded with edges
 70
    26
177
     3
291
     0
 70
    58
 90
        2
176
     1
 90
        2
176
     1
 90
        1
176
     1
 90
        2
176
     1
 40
0.6
176
     1
 40
30.0
176
     1
 62
     7
420
 16777215
176
     1
 90
        1
176
     1
 90
       10
176
     1
 62
     7
176
     1
 62
   257
176
     1
 90
        2
176
     1
 90
        1
176
     1
 40
1.0
176
     1
 90
        8
176
     1
 62
   257
176
     1
 40
1.0
176
     1
 90
        1
176
     1
 90
        6
176
     1
 90
        2
176
     1
 62
     7
176
     1
 90
        3
176
     1
 90
        0
176
     1
 90
        0
176
     1
290
     0
176
     1
 90
        5
176
     1
 40
0.0
176
     1
 90
        0
176
     1
290
     0
176
     1
290
     1
176
     1
290
     1
176
     1
290
     0
176
     1
290
     0
176
     1
290
     0
176
     1
290
     0
176
     1
290
     0
176
     1
290
     0
176
     1
 90
       50
176
     1
 40
0.0
176
     1
 40
1.0
176
     1
 90
        0
176
     1
 62
    18
420
        0
176
     1
 90
       50
176
     1
 90
        3
176
     1
 62
     5
420
      255
176
     1
290
     0
176
     1
 90
       50
176
     1
 90
       50
176
     1
 90
       50
176
     1
290
     0
176
     1
 90
       50
176
     1
 62
   256
176
     0
 40
1.0
176
     0
 90
        2
176
     1
  1
strokes_ogs.tif
176
     1
290
     0
176
     1
 40
1.0
176
     1
 40
1.0
176
     1
  0
VISUALSTYLE
  5
84F5
102
{ACAD_REACTORS
330
84E1
102
}
330
84E1
100
AcDbVisualStyle
  2
Shades of Gray
 70
    23
177
     3
291
     0
 70
    58
 90
        2
176
     1
 90
        2
176
     1
 90
        3
176
     1
 90
        0
176
     1
 40
0.6
176
     1
 40
30.0
176
     1
 62
     7
420
 16777215
176
     1
 90
        2
176
     1
 90
        2
176
     1
 62
     7
176
     1
 62
     7
176
     1
 90
        1
176
     1
 90
        1
176
     1
 40
40.0
176
     1
 90
        8
176
     1
 62
     7
176
     1
 40
1.0
176
     1
 90
        1
176
     1
 90
        6
176
     1
 90
        2
176
     1
 62
     7
176
     1
 90
        3
176
     1
 90
        0
176
     1
 90
        0
176
     1
290
     0
176
     1
 90
        1
176
     1
 40
0.0
176
     1
 90
        0
176
     1
290
     0
176
     1
290
     1
176
     1
290
     1
176
     1
290
     0
176
     1
290
     0
176
     1
290
     0
176
     1
290
     0
176
     1
290
     0
176
     1
290
     0
176
     1
 90
       50
176
     1
 40
0.0
176
     1
 40
1.0
176
     1
 90
        0
176
     1
 62
    18
420
        0
176
     1
 90
       50
176
     1
 90
        3
176
     1
 62
     5
420
      255
176
     1
290
     0
176
     1
 90
       50
176
     1
 90
       50
176
     1
 90
       50
176
     1
290
     0
176
     1
 90
       50
176
     1
 62
   256
176
     0
 40
1.0
176
     0
 90
        2
176
     1
  1
strokes_ogs.tif
176
     1
290
     0
176
     1
 40
1.0
176
     1
 40
1.0
176
     1
  0
VISUALSTYLE
  5
84F6
102
{ACAD_REACTORS
330
84E1
102
}
330
84E1
100
AcDbVisualStyle
  2
Sketchy
 70
    24
177
     3
291
     0
 70
    58
 90
        1
176
     1
 90
        2
176
     1
 90
        2
176
     1
 90
        0
176
     1
 40
0.6
176
     1
 40
30.0
176
     1
 62
     7
420
 16777215
176
     1
 90
        2
176
     1
 90
        2
176
     1
 62
     7
176
     1
 62
     7
176
     1
 90
        1
176
     1
 90
        1
176
     1
 40
40.0
176
     1
 90
       11
176
     1
 62
     7
176
     1
 40
1.0
176
     1
 90
        1
176
     1
 90
        6
176
     1
 90
        2
176
     1
 62
     7
176
     1
 90
        6
176
     1
 90
        0
176
     1
 90
        0
176
     1
290
     0
176
     1
 90
        1
176
     1
 40
0.0
176
     1
 90
        0
176
     1
290
     0
176
     1
290
     1
176
     1
290
     1
176
     1
290
     0
176
     1
290
     0
176
     1
290
     0
176
     1
290
     0
176
     1
290
     0
176
     1
290
     0
176
     1
 90
       50
176
     1
 40
0.0
176
     1
 40
1.0
176
     1
 90
        0
176
     1
 62
    18
420
        0
176
     1
 90
       50
176
     1
 90
        3
176
     1
 62
     5
420
      255
176
     1
290
     0
176
     1
 90
       50
176
     1
 90
       50
176
     1
 90
       50
176
     1
290
     0
176
     1
 90
       50
176
     1
 62
   256
176
     0
 40
1.0
176
     0
 90
        2
176
     1
  1
strokes_ogs.tif
176
     1
290
     0
176
     1
 40
1.0
176
     1
 40
1.0
176
     1
  0
VISUALSTYLE
  5
84EE
102
{ACAD_REACTORS
330
84E1
102
}
330
84E1
100
AcDbVisualStyle
  2
Thicken
 70
    13
177
     3
291
     1
 70
    58
 90
        2
176
     1
 90
        2
176
     1
 90
        0
176
     1
 90
        0
176
     1
 40
0.6
176
     1
 40
30.0
176
     1
 62
     7
420
 16777215
176
     1
 90
        1
176
     1
 90
        4
176
     1
 62
     7
176
     1
 62
   257
176
     1
 90
        1
176
     1
 90
        1
176
     1
 40
1.0
176
     1
 90
       12
176
     1
 62
     7
176
     1
 40
1.0
176
     1
 90
        1
176
     1
 90
        6
176
     1
 90
        2
176
     1
 62
     7
176
     1
 90
        5
176
     1
 90
        0
176
     1
 90
        0
176
     1
290
     0
176
     1
 90
        1
176
     1
 40
0.0
176
     1
 90
        0
176
     1
290
     0
176
     1
290
     1
176
     1
290
     1
176
     1
290
     0
176
     1
290
     0
176
     1
290
     0
176
     1
290
     0
176
     1
290
     0
176
     1
290
     0
176
     1
 90
       50
176
     1
 40
0.0
176
     1
 40
1.0
176
     1
 90
        0
176
     1
 62
    18
420
        0
176
     1
 90
       50
176
     1
 90
        3
176
     1
 62
     5
420
      255
176
     1
290
     0
176
     1
 90
       50
176
     1
 90
       50
176
     1
 90
       50
176
     1
290
     0
176
     1
 90
       50
176
     1
 62
   256
176
     0
 40
1.0
176
     0
 90
        2
176
     1
  1
strokes_ogs.tif
176
     1
290
     0
176
     1
 40
1.0
176
     1
 40
1.0
176
     1
  0
VISUALSTYLE
  5
84E7
102
{ACAD_REACTORS
330
84E1
102
}
330
84E1
100
AcDbVisualStyle
  2
Wireframe
 70
     5
177
     3
291
     0
 70
    58
 90
        0
176
     1
 90
        2
176
     1
 90
        0
176
     1
 90
        0
176
     1
 40
0.6
176
     1
 40
30.0
176
     1
 62
     7
420
 16777215
176
     1
 90
        1
176
     1
 90
        4
176
     1
 62
     7
176
     1
 62
   257
176
     1
 90
        1
176
     1
 90
        1
176
     1
 40
1.0
176
     1
 90
        0
176
     1
 62
   257
176
     1
 40
1.0
176
     1
 90
        1
176
     1
 90
        6
176
     1
 90
        2
176
     1
 62
     7
176
     1
 90
        3
176
     1
 90
        0
176
     1
 90
        0
176
     1
290
     0
176
     1
 90
        1
176
     1
 40
0.0
176
     1
 90
        0
176
     1
290
     0
176
     1
290
     1
176
     1
290
     1
176
     1
290
     0
176
     1
290
     0
176
     1
290
     0
176
     1
290
     0
176
     1
290
     0
176
     1
290
     0
176
     1
 90
       50
176
     1
 40
0.0
176
     1
 40
1.0
176
     1
 90
        0
176
     1
 62
    18
420
        0
176
     1
 90
       50
176
     1
 90
        3
176
     1
 62
     5
420
      255
176
     1
290
     0
176
     1
 90
       50
176
     1
 90
       50
176
     1
 90
       50
176
     1
290
     0
176
     1
 90
       50
176
     1
 62
   256
176
     0
 40
1.0
176
     0
 90
        2
176
     1
  1
strokes_ogs.tif
176
     1
290
     0
176
     1
 40
1.0
176
     1
 40
1.0
176
     1
  0
VISUALSTYLE
  5
84F7
102
{ACAD_REACTORS
330
84E1
102
}
330
84E1
100
AcDbVisualStyle
  2
X-Ray
 70
    25
177
     3
291
     0
 70
    58
 90
        2
176
     1
 90
        2
176
     1
 90
        1
176
     1
 90
        1
176
     1
 40
0.5
176
     1
 40
30.0
176
     1
 62
     7
420
 16777215
176
     1
 90
        1
176
     1
 90
        0
176
     1
 62
     7
176
     1
 62
   257
176
     1
 90
        1
176
     1
 90
        1
176
     1
 40
1.0
176
     1
 90
        8
176
     1
 62
     7
176
     1
 40
1.0
176
     1
 90
        1
176
     1
 90
        6
176
     1
 90
        2
176
     1
 62
     7
176
     1
 90
        3
176
     1
 90
        0
176
     1
 90
        0
176
     1
290
     0
176
     1
 90
       13
176
     1
 40
0.0
176
     1
 90
        0
176
     1
290
     0
176
     1
290
     1
176
     1
290
     1
176
     1
290
     0
176
     1
290
     0
176
     1
290
     0
176
     1
290
     0
176
     1
290
     0
176
     1
290
     0
176
     1
 90
       50
176
     1
 40
0.0
176
     1
 40
1.0
176
     1
 90
        0
176
     1
 62
    18
420
        0
176
     1
 90
       50
176
     1
 90
        3
176
     1
 62
     5
420
      255
176
     1
290
     0
176
     1
 90
       50
176
     1
 90
       50
176
     1
 90
       50
176
     1
290
     0
176
     1
 90
       50
176
     1
 62
   256
176
     0
 40
1.0
176
     0
 90
        2
176
     1
  1
strokes_ogs.tif
176
     1
290
     0
176
     1
 40
1.0
176
     1
 40
1.0
176
     1
  0
DICTIONARYVAR
  5
8503
102
{ACAD_REACTORS
330
8502
102
}
330
8502
100
DictionaryVariables
280
     0
  1
1:1
  0
DICTIONARYVAR
  5
8505
102
{ACAD_REACTORS
330
8502
102
}
330
8502
100
DictionaryVariables
280
     0
  1
Standard
  0
DICTIONARYVAR
  5
8504
102
{ACAD_REACTORS
330
8502
102
}
330
8502
100
DictionaryVariables
280
     0
  1
Standard
  0
DICTIONARYVAR
  5
8506
102
{ACAD_REACTORS
330
8502
102
}
330
8502
100
DictionaryVariables
280
     0
  1
0
  0
DICTIONARY
  5
851D
330
84FB
100
AcDbDictionary
280
     1
281
     1
  3
ACAD_ROUNDTRIP_2008_TABLESTYLE_CELLSTYLEMAP
360
851E
  0
CELLSTYLEMAP
  5
851E
102
{ACAD_REACTORS
330
851D
102
}
330
851D
100
AcDbCellStyleMap
 90
        3
300
CELLSTYLE
  1
TABLEFORMAT_BEGIN
 90
        5
170
     1
 91
        0
 92
    32768
 62
   257
 93
        1
300
CONTENTFORMAT
  1
CONTENTFORMAT_BEGIN
 90
        0
 91
        0
 92
        4
 93
        0
300

 40
0.0
140
1.0
 94
        5
 62
     0
340
849F
144
0.25
309
CONTENTFORMAT_END
171
     1
301
MARGIN
  1
CELLMARGIN_BEGIN
 40
0.06
 40
0.06
 40
0.06
 40
0.06
 40
0.06
 40
0.06
309
CELLMARGIN_END
 94
        6
 95
        1
302
GRIDFORMAT
  1
GRIDFORMAT_BEGIN
 90
        0
 91
        1
 62
     0
 92
       -2
340
84A1
 93
        0
 40
0.045
309
GRIDFORMAT_END
 95
        2
302
GRIDFORMAT
  1
GRIDFORMAT_BEGIN
 90
        0
 91
        1
 62
     0
 92
       -2
340
84A1
 93
        0
 40
0.045
309
GRIDFORMAT_END
 95
        4
302
GRIDFORMAT
  1
GRIDFORMAT_BEGIN
 90
        0
 91
        1
 62
     0
 92
       -2
340
84A1
 93
        0
 40
0.045
309
GRIDFORMAT_END
 95
        8
302
GRIDFORMAT
  1
GRIDFORMAT_BEGIN
 90
        0
 91
        1
 62
     0
 92
       -2
340
84A1
 93
        0
 40
0.045
309
GRIDFORMAT_END
 95
       16
302
GRIDFORMAT
  1
GRIDFORMAT_BEGIN
 90
        0
 91
        1
 62
     0
 92
       -2
340
84A1
 93
        0
 40
0.045
309
GRIDFORMAT_END
 95
       32
302
GRIDFORMAT
  1
GRIDFORMAT_BEGIN
 90
        0
 91
        1
 62
     0
 92
       -2
340
84A1
 93
        0
 40
0.045
309
GRIDFORMAT_END
309
TABLEFORMAT_END
  1
CELLSTYLE_BEGIN
 90
        1
 91
        1
300
_TITLE
309
CELLSTYLE_END
300
CELLSTYLE
  1
TABLEFORMAT_BEGIN
 90
        5
170
     1
 91
        0
 92
        0
 62
   257
 93
        1
300
CONTENTFORMAT
  1
CONTENTFORMAT_BEGIN
 90
        0
 91
        0
 92
        4
 93
        0
300

 40
0.0
140
1.0
 94
        5
 62
     0
340
849F
144
0.18
309
CONTENTFORMAT_END
171
     1
301
MARGIN
  1
CELLMARGIN_BEGIN
 40
0.06
 40
0.06
 40
0.06
 40
0.06
 40
0.06
 40
0.06
309
CELLMARGIN_END
 94
        6
 95
        1
302
GRIDFORMAT
  1
GRIDFORMAT_BEGIN
 90
        0
 91
        1
 62
     0
 92
       -2
340
84A1
 93
        0
 40
0.045
309
GRIDFORMAT_END
 95
        2
302
GRIDFORMAT
  1
GRIDFORMAT_BEGIN
 90
        0
 91
        1
 62
     0
 92
       -2
340
84A1
 93
        0
 40
0.045
309
GRIDFORMAT_END
 95
        4
302
GRIDFORMAT
  1
GRIDFORMAT_BEGIN
 90
        0
 91
        1
 62
     0
 92
       -2
340
84A1
 93
        0
 40
0.045
309
GRIDFORMAT_END
 95
        8
302
GRIDFORMAT
  1
GRIDFORMAT_BEGIN
 90
        0
 91
        1
 62
     0
 92
       -2
340
84A1
 93
        0
 40
0.045
309
GRIDFORMAT_END
 95
       16
302
GRIDFORMAT
  1
GRIDFORMAT_BEGIN
 90
        0
 91
        1
 62
     0
 92
       -2
340
84A1
 93
        0
 40
0.045
309
GRIDFORMAT_END
 95
       32
302
GRIDFORMAT
  1
GRIDFORMAT_BEGIN
 90
        0
 91
        1
 62
     0
 92
       -2
340
84A1
 93
        0
 40
0.045
309
GRIDFORMAT_END
309
TABLEFORMAT_END
  1
CELLSTYLE_BEGIN
 90
        2
 91
        1
300
_HEADER
309
CELLSTYLE_END
300
CELLSTYLE
  1
TABLEFORMAT_BEGIN
 90
        5
170
     1
 91
        0
 92
        0
 62
   257
 93
        1
300
CONTENTFORMAT
  1
CONTENTFORMAT_BEGIN
 90
        0
 91
        0
 92
        4
 93
        0
300

 40
0.0
140
1.0
 94
        2
 62
     0
340
849F
144
0.18
309
CONTENTFORMAT_END
171
     1
301
MARGIN
  1
CELLMARGIN_BEGIN
 40
0.06
 40
0.06
 40
0.06
 40
0.06
 40
0.06
 40
0.06
309
CELLMARGIN_END
 94
        6
 95
        1
302
GRIDFORMAT
  1
GRIDFORMAT_BEGIN
 90
        0
 91
        1
 62
     0
 92
       -2
340
84A1
 93
        0
 40
0.045
309
GRIDFORMAT_END
 95
        2
302
GRIDFORMAT
  1
GRIDFORMAT_BEGIN
 90
        0
 91
        1
 62
     0
 92
       -2
340
84A1
 93
        0
 40
0.045
309
GRIDFORMAT_END
 95
        4
302
GRIDFORMAT
  1
GRIDFORMAT_BEGIN
 90
        0
 91
        1
 62
     0
 92
       -2
340
84A1
 93
        0
 40
0.045
309
GRIDFORMAT_END
 95
        8
302
GRIDFORMAT
  1
GRIDFORMAT_BEGIN
 90
        0
 91
        1
 62
     0
 92
       -2
340
84A1
 93
        0
 40
0.045
309
GRIDFORMAT_END
 95
       16
302
GRIDFORMAT
  1
GRIDFORMAT_BEGIN
 90
        0
 91
        1
 62
     0
 92
       -2
340
84A1
 93
        0
 40
0.045
309
GRIDFORMAT_END
 95
       32
302
GRIDFORMAT
  1
GRIDFORMAT_BEGIN
 90
        0
 91
        1
 62
     0
 92
       -2
340
84A1
 93
        0
 40
0.045
309
GRIDFORMAT_END
309
TABLEFORMAT_END
  1
CELLSTYLE_BEGIN
 90
        3
 91
        2
300
_DATA
309
CELLSTYLE_END
  0
ENDSEC
  0
EOF
